アットウィキロゴ
1
□□□□|①--②|
①③⑥④|--③-|
□□□□|④--⑤|
⑤□□②|--⑥-|

2
①③⑥④|①--②|
□□□□|--③-|
⑤□□②|④--⑤|
□□□□|--⑥-|

3
□□□□|①--②|
①③⑥④|--③-|
□□□□|④--⑤|
□⑤②□|--⑥-|

4
①③⑥④|①--②|
□□□□|--③-|
□⑤②□|④--⑤|
□□□□|--⑥-|

5
⑦⑮⑯⑧|①②③④|
③⑪⑫④|⑤⑥⑦⑧|
⑤⑬⑭⑥|⑨⑩⑪⑫|
①⑨⑩②|⑬⑭⑮⑯|

6
⑦⑮⑯⑧|①②③④|
③⑪⑫④|⑤⑥⑦⑧|
⑤⑬⑭⑥|⑨⑩⑪⑫|
①⑨⑩②|⑬⑭⑮⑯|

7
⑦⑮⑯⑧|①②③④|
③⑪⑫④|⑤⑥⑦⑧|
⑤⑬⑭⑥|⑨⑩⑪⑫|
①⑨⑩②|⑬⑭⑮⑯|

8
□④④□|①---|
□□□□|②---|
④□□④|③---|
①②③□|④---|

9
①□⑥①|①---|
②⑤⑨□|②--③|
④□③⑧|④-⑤⑥|
⑦②□□|⑦⑧⑨⑩|

□□□⑩
□□□□
□□□□
□□□□

10
①①④□|①-②-|
③□⑥⑥|③--④|
⑤□②□|⑤-⑥-|
⑦③⑧⑧|⑦⑧--|

11
①□⑥①|①---|
②⑤⑨□|②--③|
④□③⑧|④-⑤⑥|
⑦②□□|⑦⑧⑨⑩|

□□□⑩
□□□□
□□□□
□□□□

12
□③⑦□|①-②-|
□⑨⑨⑤|③④-⑤|
⑥②②□|⑥⑦⑧-|
⑧①①④|⑨---|

13
①□⑥①|①---|
②⑤⑨□|②--③|
④□③⑧|④-⑤⑥|
⑦②□□|⑦⑧⑨⑩|

□□□⑩
□□□□
□□□□
□□□□

14
①①④□|①-②-|
③□⑥⑥|③--④|
⑤□②□|⑤-⑥-|
⑦③⑧⑧|⑦⑧--|

15
①□⑥①|①---|
②⑤⑨□|②--③|
④□③⑧|④-⑤⑥|
⑦②□□|⑦⑧⑨⑩|

□□□⑩
□□□□
□□□□
□□□□

16
□⑦⑧□|①②③④|
③⑬□④|⑤⑥⑦⑧|
⑪⑤⑥⑫|⑨⑩⑪⑫|
⑨①②⑩|⑬---|

17
①□⑥①|①---|
②⑤①③|②--③|
④□③⑧|④-⑤⑥|
⑦②②□|⑦⑧⑨⑩|

□□□⑩
□□⑨□
□□□□
□□□□

18
①①④□|①-②-|
③④⑦②|③--④|
⑤⑥②⑧|⑤-⑥-|
⑦③③⑦|⑦-⑧⑨|

□□□□
□□□⑨
□□□□
□□□□

19
①□⑥①|①---|
②⑤⑨□|②--③|
④□③⑧|④-⑤⑥|
⑦②□□|⑦⑧⑨⑩|

□□□⑩
□□□□
□□□□
□□□□

20
□③⑦□|①-②-|
□⑨□⑤|③④-⑤|
⑥②②⑨|⑥⑦⑧-|
⑧①①④|⑨---|

21
①□⑥①|①---|
②⑤①③|②--③|
④□③⑧|④-⑤⑥|
⑦②②□|⑦⑧⑨⑩|

□□□⑩
□□⑨□
□□□□
□□□□

22
①①④□|①-②-|
③④⑦②|③--④|
⑤⑥②⑧|⑤-⑥-|
⑦③③⑦|⑦-⑧⑨|

□□□□
□□□⑨
□□□□
□□□□

23
①⑪⑩④|①②③④|
⑤③⑯⑫|⑤⑥⑦⑧|
⑨⑮⑥⑭|⑨⑩⑪⑫|
⑬⑦②⑧|⑬⑭⑮⑯|

24
①□□①|①---|
⑤□□□|--②-|
④□□□|③④⑤⑥|
③②②□|⑦⑧⑨⑩|

⑥□□⑩
□□□⑨
□□□⑧
□□□⑦

25
□①①□|①---|
⑤⑤□□|②-③-|
④④②□|④--⑤|
□□③□|--⑥-|

⑥⑥□□
□□□□
□□□□
□□□□

26
□□②②|--①-|
□□①①|-②--|
③□⑤□|③-④-|
□④□□|⑤---|

27
□①①□|①---|
□□⑤⑤|②-③-|
□②④④|④--⑤|
□③□□|--⑥-|

□□⑥⑥
□□□□
□□□□
□□□□

28
⑥□□□|--①-|
⑦⑤□③|②-③-|
②□④②|④-⑤-|
□①①□|⑥-⑦-|

29
□①①□|①---|
⑤⑤□□|②-③-|
④④②□|④--⑤|
□□③□|--⑥-|

⑥⑥□□
□□□□
□□□□
□□□□

30
□□②②|--①-|
□□①①|-②--|
③□⑤□|③-④-|
□④□□|⑤---|

31
□①①□|①---|
□□⑤⑤|②-③-|
□②④④|④--⑤|
□③□□|--⑥-|

□□⑥⑥
□□□□
□□□□
□□□□

32
⑥□□□|--①-|
⑦⑤□③|②-③-|
②□④②|④-⑤-|
□①①□|⑥-⑦-|

33
⑦①⑦④|①---|
⑥□□□|②-③-|
④②⑤□|④-⑤⑥|
□③①②|--⑦-|

34
□③⑦④|--①-|
□①□②|②③--|
④□⑥⑥|④-⑤-|
□⑤①□|⑥-⑦-|

35
⑦①⑦④|①---|
⑥□□□|②-③-|
④②⑤□|④-⑤⑥|
□③①②|--⑦-|

36
⑦□⑦④|--①-|
③⑥⑤②|②-③-|
②④□⑥|④-⑤-|
□①①□|⑥-⑦-|

37
⑦①⑦④|①---|
⑥□□□|②-③-|
④②⑤□|④-⑤⑥|
□③①②|--⑦-|

38
□③□□|--①-|
④①□②|②③--|
□□④④|④--⑤|
□□①⑤|--⑥-|

□□□□
□⑥□□
□□□□
□□□□

39
④⑥③①|①--②|
□□□□|--③-|
□②⑤□|④--⑤|
□□□□|--⑥-|

40
⑥□⑦②|①-②-|
□⑤①①|③④⑤-|
⑥⑧□④|⑥-⑦⑧|
①③⑥⑨|⑨---|

41
□①⑤①|①---|
①④①③|②--③|
②③③⑥|--④⑤|
③②②□|-⑥⑦⑧|

□□□⑧
□□⑦□
□□□□
□□□□

42
②①④□|①-②-|
④□□⑤|③--④|
①④②□|--⑤-|
③③③②|-⑥--|

□□□□
□□□□
□□□□
□□□⑥

43
□①⑤①|①---|
□④①③|②--③|
②③③⑥|--④⑤|
③②②□|-⑥⑦⑧|

□□□⑧
□□⑦□
□□□□
□□□□

44
③⑩⑦□|①-②-|
⑪⑨□⑤|③④-⑤|
⑥②②□|⑥⑦⑧-|
⑧①①④|⑨⑩⑪⑫|

⑫□□□
□□□□
□□□□
□□□□

45
□□⑤①|①---|
□④①③|②--③|
②③③⑥|--④⑤|
③②②□|-⑥⑦⑧|

□□□⑧
□□⑦□
□□□□
□□□□

46
②①④□|①-②-|
④□□⑤|③--④|
①④②□|--⑤-|
③③③②|-⑥--|

□□□□
□□□□
□□□□
□□□⑥

47
□①⑤①|①---|
□④①③|②--③|
②③③⑥|--④⑤|
③②②□|-⑥⑦⑧|

□□□⑧
□□⑦□
□□□□
□□□□

48
□⑦⑧□|①②③④|
③⑬□④|⑤⑥⑦⑧|
⑪⑤⑥⑫|⑨⑩⑪⑫|
⑨①②⑩|⑬---|

49
①□⑥①|①---|
②⑤①③|②--③|
④□③⑧|④-⑤⑥|
⑦②②□|⑦⑧⑨⑩|

□□□⑩
□□⑨□
□□□□
□□□□

50
①①④□|①-②-|
③④⑦②|③--④|
⑤⑥②⑧|⑤-⑥-|
⑦③③⑦|⑦-⑧⑨|

□□□□
□□□⑨
□□□□
□□□□

51
①□⑥①|①---|
②⑤⑨□|②--③|
④□③⑧|④-⑤⑥|
⑦②□□|⑦⑧⑨⑩|

□□□⑩
□□□□
□□□□
□□□□

52
□③⑦□|①-②-|
□⑨□⑤|③④-⑤|
⑥②②⑨|⑥⑦⑧-|
⑧①①④|⑨---|

53
①□⑥①|①---|
②⑤①③|②--③|
④□③⑧|④-⑤⑥|
⑦②②□|⑦⑧⑨⑩|

□□□⑩
□□⑨□
□□□□
□□□□

54
①①④□|①-②-|
③④⑦②|③--④|
⑤⑥②⑧|⑤-⑥-|
⑦③③⑦|⑦-⑧⑨|

□□□□
□□□⑨
□□□□
□□□□

55
①⑪⑩④|①②③④|
⑤③⑯⑫|⑤⑥⑦⑧|
⑨⑮⑥⑭|⑨⑩⑪⑫|
⑬⑦②⑧|⑬⑭⑮⑯|

56
①⑥②①|①---|
□⑤□⑨|--②-|
②④□⑧|③④⑤⑥|
□③□⑦|⑦⑧⑨⑩|

□□□⑩
□□□□
□□□□
□□□□

57
⑦⑦②□|①---|
⑤⑤③□|②-③-|
④④①□|④--⑤|
①②④⑥|⑥-⑦-|

58
⑦⑦□②|①-②-|
⑤⑤□□|③④--|
⑥⑥④□|⑤-⑥-|
①③⑤⑦|⑦---|

59
⑦⑦①□|①---|
⑤⑤②□|②-③-|
④④③①|④--⑤|
①②④⑥|⑥-⑦-|

60
⑦□③□|①-②-|
⑤⑥□②|③-④-|
⑦④④⑧|⑤-⑥-|
①③⑤⑦|⑦-⑧-|

61
⑦⑦②□|①---|
⑤⑤①①|②-③-|
④④③□|④--⑤|
①②④⑥|⑥-⑦-|

62
⑦⑦□②|①-②-|
⑤⑤□□|③④--|
⑥⑥④□|⑤-⑥-|
①③⑤⑦|⑦---|

63
⑦⑦②①|①---|
⑤⑤③□|②-③-|
④④①□|④--⑤|
①②④⑥|⑥-⑦-|

64
⑥⑥③⑦|①-②-|
□□③②|③-④-|
④③□□|⑤-⑥-|
①③⑤⑤|⑦⑧⑨-|

□□□□
□□□⑧
□□□⑨
□□□□

65
⑧④⑤□|①---|
□②③⑦|②③④⑤|
⑥⑥□□|⑥⑦⑧⑨|
①①⑨⑨|----|

66
⑦⑦□②|①-②-|
⑤⑤□□|③④--|
⑥⑥④□|⑤-⑥-|
①③⑤⑦|⑦---|

67
⑦⑦①□|①---|
⑤⑤②□|②-③-|
④④③①|④--⑤|
①②④⑥|⑥-⑦-|

68
⑦□③□|①-②-|
⑤⑥□②|③-④-|
⑦④④⑧|⑤-⑥-|
①③⑤⑦|⑦-⑧-|

69
⑦⑦②□|①---|
⑤⑤①①|②-③-|
④④③□|④--⑤|
①②④⑥|⑥-⑦-|

70
⑧⑧□②|①-②-|
⑤⑤□⑨|③④--|
⑥⑥④⑦|⑤-⑥⑦|
①③□⑤|⑧-⑨-|

71
□□②⑤|①---|
③④①□|②-③④|
□□⑧⑤|⑤---|
⑥⑦①□|⑥⑦⑧⑨|

□□□□
□□⑨□
□□□□
□□□□

72
①①⑧⑤|①--②|
②②⑦③|③-④-|
④④□□|⑤⑥⑦⑧|
⑥⑥□①|----|
最終更新:2025年01月03日 18:47