アットウィキロゴ
BPM:280
1
□□□□ |①-②-|
□②④⑥ |③-④-|
①③⑤□ |⑤-⑥-|
□⑦⑦□ |--⑦-|
2
④③②① |--①-|
⑤□□□ |②-③-|
□□□□ |④-⑤-|
⑥□□⑥ |--⑥-|
3
⑥□□⑦ |--①-|
□④⑤① |②-③-|
□②□□ |④-⑤-|
□□③□ |⑥-⑦-|
4
□④⑤□ |①-②-|
③□□⑥ |③-④-|
②□□⑦ |⑤-⑥-|
□①⑧□ |⑦-⑧-|
5
④□□② |①---|
□□□□ |②---|
□④②□ |③---|
①□□③ |④---|
6
□④②□ |①---|
□□□□ |②---|
④□□② |③---|
□①③□ |④---|
7
□□□□ |①---|
①③④② |②---|
□□□□ |③---|
①③④② |④---|
8
⑤□□⑤ |①-②-|
□□□□ |③-④-|
①②③④ |⑤---|
⑥□□⑥ |⑥---|
9
□①②□ |①-②-|
□③④□ |③-④-|
□⑤⑥□ |⑤-⑥-|
□⑦⑧□ |⑦-⑧-|
10
⑦□□⑧ |①-②-|
⑤□□⑥ |③-④-|
③□□④ |⑤-⑥-|
①□□② |⑦-⑧-|
11
□⑦⑧□ |①-②-|
□⑤⑥□ |③-④-|
□③④□ |⑤-⑥-|
□①②□ |⑦-⑧-|
12
①□□② |①-②-|
③□□④ |③-④-|
⑤□□⑥ |⑤-⑥-|
⑦□□⑧ |⑦-⑧-|
13
□□④□ |①---|
⑤①①□ |②-③-|
□□③⑥ |--④-|
□□②□ |⑤-⑥-|
14
④□□④ |①-②-|
□③□② |③-④-|
□⑤⑤□ |--⑤-|
□①□□ |----|
15
□□□□ |①---|
□□□□ |----|
②□□□ |②---|
①□□① |----|
16
②□□□ |①---|
①□□□ |----|
□□□□ |②---|
□□□□ |----|
17
□□□□ |①---|
□□□□ |----|
□②□□ |②---|
□①□□ |----|
18
□①②③ |①-②-|
□□□④ |③-④-|
□□⑤□ |--⑤-|
⑥□⑤⑦ |⑥-⑦-|
19
①□□□ |①---|
②□□□ |----|
□□□□ |②---|
□□□□ |----|
20
□□□□ |①---|
□□□□ |----|
①□□□ |②---|
②□□□ |----|
21
□①□□ |①---|
□②□□ |----|
□□□□ |②---|
□□□□ |----|
22
□□□□ |①---|
□□□□ |----|
□□□□ |----|
□①①□ |----|
23
⑤□□⑦ |--①-|
□②③□ |②-③-|
④□①⑥ |④-⑤-|
□□□□ |⑥-⑦-|
24
□□□□ |①-②-|
③⑦⑧④ |③-④-|
□□□□ |⑤-⑥-|
⑤①②⑥ |⑦-⑧-|
25
③⑦□④ |①-②-|
⑦□□□ |③-④-|
□①②⑥ |⑤-⑥-|
□⑤□□ |--⑦-|
26
⑥□③□ |①-②-|
□⑥□③ |--③-|
②□⑤□ |④-⑤-|
④□①□ |--⑥-|
27
□②□② |①---|
③□□④ |②---|
⑤□□⑥ |③-④-|
□①□① |⑤-⑥-|
28
□□②□ |①-②-|
□③④□ |--③-|
□⑤②□ |--④-|
①③⑥□ |⑤-⑥-|
29
□③④□ |①-②-|
□□□□ |③-④-|
①□⑥② |⑤-⑥-|
⑤□□⑦ |--⑦-|
30
①□⑥② |①-②-|
①□□② |--③-|
□⑤□③ |--④-|
□□④□ |⑤-⑥-|
31
⑤□□⑦ |--①-|
□②③□ |②-③-|
④□①⑥ |④-⑤-|
□□□□ |⑥-⑦-|
32
□⑥⑥□ |①-②-|
③□□④ |③-④-|
□⑤⑤□ |⑤---|
□①②□ |⑥---|
33
□□□□ |①-②-|
□⑥⑤□ |③-④-|
③□⑦④ |--⑤-|
①□□② |⑥-⑦-|
34
⑥④⑤⑥ |①---|
④□□⑤ |②-③-|
□①□□ |④-⑤-|
②□□③ |--⑥-|
35
□□⑦□ |--①-|
□⑥①□ |②-③-|
②□⑤□ |④-⑤-|
□④③□ |⑥-⑦-|
36
③④□③ |①-②-|
①□⑤② |--③-|
□⑥□□ |--④-|
①□□② |⑤-⑥-|
37
□⑧⑦□ |①-②-|
⑥□□⑤ |③-④-|
④□□③ |⑤-⑥-|
□②①□ |⑦-⑧-|
38
②□□① |①-②-|
□□□□ |----|
□□□□ |----|
□□□□ |----|
39
□□□④ |①---|
□□②□ |②---|
③③□□ |③-④-|
①①□□ |----|
40
④④□□ |①-②-|
①①□□ |--③-|
□⑥□② |④---|
□□③⑤ |⑤-⑥-|
41
□□①① |①---|
□□②② |----|
□□□□ |②---|
□□□□ |----|
42
□③□□ |①-②-|
②□□□ |--③-|
□□①① |④---|
□□④④ |----|
43
□□①□ |①---|
□□①① |----|
①①□□ |----|
□①□□ |----|
44
□□□□ |----|
□□□□ |----|
□□□□ |----|
□□□□ |----|
45
□①□□ |①---|
①①□□ |----|
□□①① |----|
□□①□ |----|
46
□□□□ |----|
□□□□ |----|
□□□□ |----|
□□□□ |----|
47
□⑥③□ |①-②-|
⑥□□③ |③---|
□②⑤□ |④-⑤-|
①□□④ |⑥---|
48
④□□① |①-②-|
□⑤②□ |③---|
③□□⑥ |④-⑤-|
□③⑥□ |⑥---|
49
□⑧⑦□ |①-②-|
⑥□□⑤ |③-④-|
□④③□ |⑤-⑥-|
②□□① |⑦-⑧-|
50
□□□□ |①---|
□□□□ |----|
□□□□ |----|
□①①□ |----|
51
□□□□ |①-②-|
□②④⑥ |③-④-|
①③⑤□ |⑤-⑥-|
□⑦⑦□ |--⑦-|
52
④③②① |--①-|
⑤□□□ |②-③-|
□□□□ |④-⑤-|
⑥□□⑥ |--⑥-|
53
⑥□□⑦ |--①-|
□④⑤① |②-③-|
□②□□ |④-⑤-|
□□③□ |⑥-⑦-|
54
□④⑤□ |①-②-|
③□□⑥ |③-④-|
②□□⑦ |⑤-⑥-|
□①⑧□ |⑦-⑧-|
55
①□□④ |①---|
□①②□ |②---|
□□□□ |③-④-|
③⑤□⑥ |⑤-⑥-|
56
⑤②③⑧ |①-②-|
①⑥⑦④ |③-④-|
⑤②③⑧ |⑤-⑥-|
□□□□ |⑦-⑧-|
57
□④④□ |①---|
②□□□ |②-③-|
□⑤⑤□ |--④-|
①①□③ |--⑤-|
58
□□□□ |--①-|
③□□④ |②---|
①□□② |③-④-|
□□□□ |----|
59
□②④⑥ |①-②-|
□□□□ |③-④-|
⑦□□⑦ |⑤-⑥-|
①③⑤□ |--⑦-|
60
□⑤□□ |--①-|
④□□① |②-③-|
□③②□ |④-⑤-|
⑥□□⑥ |--⑥-|
61
①□□④ |--①-|
□⑦②□ |②-③-|
③⑤⑥□ |④-⑤-|
□□□□ |⑥-⑦-|
62
□⑧①□ |①-②-|
⑦□□② |③-④-|
⑥□□③ |⑤-⑥-|
□⑤④□ |⑦-⑧-|
63
②□□② |①---|
□④□⑤ |②---|
⑥①①③ |③-④-|
□□□□ |⑤-⑥-|
64
□⑤⑤□ |①-②-|
②□□□ |③-④-|
□□③□ |--⑤-|
④⑥⑥① |--⑥-|
65
□□□□ |①-②-|
④③②① |③-④-|
⑤⑥⑦□ |⑤-⑥-|
□□□□ |⑦---|
66
①②③④ |①-②-③-|
⑫□□⑤ |④-⑤-⑥-|
⑪□□⑥ |⑦-⑧-⑨-|
⑩⑨⑧⑦ |⑩-⑪-⑫-|
67
②□□④ |①---|
□③□□ |②---|
□①①□ |③-④-|
□⑤⑤□ |--⑤-|
68
③①□□ |----|
□□②□ |①---|
□□□□ |②-③-|
□□□□ |----|
69
□⑨⑥□ |①-②-|
□⑦□□ |③-④-|
□⑤⑧□ |⑤-⑥⑦|
①②④③ |⑧-⑨-|
70
②□□⑥ |①---②③④⑤|
③□①⑦ |----⑥⑦⑧⑨|
④□□⑧ |----⑩-|
⑤⑪⑩⑨ |--⑪-|
71
□□②□ |①---|
□④□□ |②---|
③①□□ |③-④-|
□□□⑤ |--⑤-|
72
□①□□ |----|
□□□□ |①---|
□③□□ |②-③-|
□□②□ |----|
73
⑤⑫⑨① |①②③④----|
⑥⑩⑬② |⑤⑥⑦⑧----|
⑦⑭⑪③ |⑨-⑩-⑪-|
⑧□□④ |⑫-⑬-⑭-|
74
□□□□ |----|
□□□□ |----|
□□□□ |----|
□□□□ |----|
75
④□□□ |①---|
③□□② |②---|
□□□□ |③-④-|
①□□① |----|
76
□②□② |①---|
□□②□ |----|
□①□① |②---|
□□①□ |----|
77
①□⑥⑥ |①-②-|
□□□④ |③---|
⑤⑤②□ |④---|
□③□④ |⑤-⑥-|
78
□□□□ |--①-|
①④④□ |②-③-|
□□□② |④---|
③⑤⑤□ |⑤---|
79
②□④□ |①---|
⑤⑤□① |②---|
②③□□ |③-④-|
□□□① |--⑤-|
80
□④□③ |--①-|
□□⑤② |②-③-|
□⑥□① |④-⑤-|
□□⑦□ |⑥-⑦-|
81
□□□□ |①---|
□□□□ |----|
②□□② |②---|
①□□① |----|
82
□①①□ |①---|
□①①□ |----|
□□□□ |----|
□□□□ |----|
83
□⑤③① |①-②-|
②④⑥□ |--③-|
□□□□ |④---|
①③⑤□ |⑤-⑥-|
84
①□□□ |--①-|
□□□② |②---|
□□□□ |----|
□□□① |----|
85
①③□□ |----|
□□□② |----|
□□□□ |①-②-|
□□③① |--③-|
86
□□②④ |①---|
⑤③①□ |②-③-|
□□□□ |--④-|
④②□□ |⑤---|
87
□□□□ |----|
□□□□ |----|
□□□□ |----|
□□□□ |----|
88
①②③④ |--①-|
□⑤□□ |②-③-|
□□⑥□ |④-⑤-|
□⑦□□ |⑥-⑦-|
89
④□⑤□ |--①-|
③□□□ |②-③-|
②⑥□⑦ |④-⑤-|
①□□□ |⑥-⑦-|
90
□□⑦□ |--①-|
□⑥□□ |②-③-|
□□⑤□ |④-⑤-|
④③②① |⑥-⑦-|
91
⑦□□① |--①-|
□□⑥② |②-③-|
□⑤□③ |④-⑤-|
□□□④ |⑥-⑦-|
92
□□□□ |①---|
□□□□ |----|
□□□□ |----|
□①①□ |----|
93
□□□□ |----|
□□□□ |----|
□□□□ |----|
□□□□ |----|
94
□□□□ |----|
□□□□ |----|
□□□□ |----|
□□□□ |----|
95
□□□□ |--①-|
□⑥⑦③ |②-③-|
②④⑤□ |④-⑤-|
□□□① |⑥-⑦-|
96
②□①② |①---|
①□□□ |----|
□②②① |----|
□①□□ |--②-|
97
□□□□ |----|
①□□① |----|
□□□□ |----|
①□□① |--①-|
98
①□□④ |--①-|
□⑦②□ |②-③-|
③⑤⑥□ |④-⑤-|
□□□□ |⑥-⑦-|
99
□⑧①□ |①-②-|
⑦□□② |③-④-|
⑥□□③ |⑤-⑥-|
□⑤④□ |⑦-⑧-|
100
□□③③ |①-②-|
□④□⑤ |③---|
□②□□ |④---|
④□⑤① |⑤---|
101
□③□④ |①-②-|
③⑤②□ |③---|
①□④② |④---|
⑤①□□ |⑤---|
102
④□□□ |①---|
□□③□ |②-③-|
□②□□ |--④-|
□⑤⑤① |--⑤-|
103
□①①□ |----|
②□□③ |①---|
□□□□ |②---|
□□□□ |③---|
104
□⑥⑤④ |----|
□③□□ |①-②-|
□□□② |③-④⑤|
①□⑦□ |⑥-⑦-|
105
④□□□ |①②③-|
⑥□⑤⑦ |④-⑤-|
①②③⑦ |⑥-⑦-|
□⑧□□ |--⑧-|
106
⑥⑤④① |①-②-|
□□□□ |③---|
□□□□ |④⑤⑥-----|
②□⑦③ |--⑦-|
107
□⑪□⑩ |①②③④|
①②③④ |⑤⑥⑦⑧|
⑤⑥⑦⑧ |⑨-⑩-|
⑨□□⑫ |⑪-⑫-|
108
①□④□ |①-②-|
③□□⑥ |③-④-|
⑦□⑧□ |⑤-⑥-|
□⑤②□ |⑦-⑧-|
109
□⑦⑥□ |①-②-|
□①④□ |③-④-|
□③□⑧ |⑤-⑥-|
⑤□□② |⑦-⑧-|
110
⑤□□⑥ |①-②-|
①③□② |③-④-|
③□④□ |⑤---|
□①②④ |⑥---|
111
□□□□ |----|
□□□□ |----|
□□□□ |----|
□□□□ |----|
112
①□□□ |①-②-|
⑤□⑨④ |③-④-|
□③□② |⑤-⑥⑦|
⑧⑦⑥□ |⑧-⑨-|
113
⑩①④⑥ |①-②-|
⑪③□⑦ |③-④-|
⑫⑤②⑧ |⑤---⑥⑦⑧⑨|
⑬□□⑨ |----⑩⑪⑫⑬|
114
□④⑤⑦ |--①-|
□⑥③□ |②-③-|
□□□□ |④-⑤-|
□②①□ |⑥-⑦-|
115
④□⑩□ |①②③-|
□□⑧⑩ |④-⑤⑥|
□①②③ |⑦-⑧-|
⑨⑦⑥⑤ |⑨-⑩-|
116
□①□□ |①---|
①□⑥□ |②-③-|
②□④③ |--④-|
□⑤□□ |⑤-⑥-|
117
④□□④ |①-②-|
□③□□ |③-④-|
□①□□ |--⑤-|
⑤□②⑤ |----|
118
□□□□ |----|
□□□□ |----|
□□□□ |----|
□□□□ |----|
119
□④③④ |①-②-|
□②□□ |③-④-|
□□□① |--⑤-|
⑤□⑤□ |----|
120
□□□⑥ |①-②-|
□□④⑤ |③-④-|
□②③□ |⑤-⑥-|
□①⑦□ |--⑦-|
121
⑤⑥③□ |①-②-|
□④□□ |③-④-|
□□□② |⑤-⑥-|
□□□① |----|
122
⑧□□□ |①-②-|
⑦□①□ |③-④-|
□②□④ |⑤-⑥-|
⑤□③⑥ |⑦-⑧-|
123
□①④⑤ |①-②-|
□②③⑥ |③-④-|
□□□□ |⑤-⑥-|
□□□□ |----|
124
⑥□□□ |①-②-|
⑤④□□ |③-④-|
□③②□ |⑤-⑥-|
□⑦①□ |--⑦-|
125
□③⑥⑤ |①-②-|
□□④□ |③-④-|
②□□□ |⑤-⑥-|
①□□□ |----|
126
□□□⑧ |①-②-|
□①□⑦ |③-④-|
④□②□ |⑤-⑥-|
⑥③□⑤ |⑦-⑧-|
127
⑤④①□ |①-②-|
⑥③②□ |③-④-|
□□□□ |⑤-⑥-|
□□□□ |----|
128
□⑤⑤② |①---|
□□④□ |②---|
□③□□ |③-④-|
①□□① |--⑤-|
129
□□□□ |--①-|
□⑥□① |②-③-|
⑦□②⑦ |④-⑤-|
④③⑤□ |⑥-⑦-|
130
□□①□ |----|
④□③④ |①---|
□②□□ |②-③-|
□□□□ |--④-|
131
□□④③ |①---|
□⑤□□ |②---|
⑥□□□ |③-④-|
□②①□ |⑤-⑥-|
132
□□□□ |①---|
□□□□ |----|
□□□② |②---|
①□□① |----|
133
□□□□ |①-②-|
⑤④③① |③---|
□□□□ |④---|
□②□□ |⑤---|
134
□②②□ |①--②-|
□□□□ |----|
①□□① |----|
□□□□ |----|
最終更新:2023年11月01日 21:54