アットウィキロゴ
BPM:150
1
①④⑥① |①---|
□□②□ |②---|
③①□⑤ |③-④-|
②⑤③② |⑤-⑥-|
2
□□□□ |①---|
□①①□ |----|
□①①□ |----|
□□□□ |----|
3
□⑤①⑤ |①---|
②④□② |②---|
①□⑥① |③-④-|
③②③□ |⑤-⑥-|
4
①□□□ |①---|
□□①□ |----|
□①□□ |----|
□□□① |----|
5
①④⑥① |①---|
□□②□ |②---|
③①□⑤ |③-④-|
②⑤③② |⑤-⑥-|
6
□□□□ |①---|
□①①□ |----|
□①①□ |----|
□□□□ |----|
7
□⑤①⑤ |①---|
②④□② |②---|
①□⑥① |③-④-|
③②③□ |⑤-⑥-|
8
①□□□ |①---|
□□①□ |----|
□①□□ |----|
□□□① |----|
9
□□①□ |①---|
②③③□ |②---|
□③③① |③---|
□②□□ |④-⑤-|

□□□□
□□□⑤
□□□④
□□□□
10
□②①□ |①-②-|
③□□□ |③-④-|
□④□⑥ |⑤---|
□□⑤□ |--⑥-|
11
□①□□ |①---|
□③④② |②-③-|
①③④□ |④---|
□□②□ |⑤-⑥-|

□□□□
⑥□□□
⑤□□□
□□□□
12
□①②□ |①-②-|
□⑥⑥③ |③-④-|
□□④□ |⑤---|
□⑤□□ |--⑥-|
13
□③□□ |①---|
□□□② |②---|
③□□□ |③---|
①□②① |④-⑤-|

□□□□
□□□□
□□□□
④⑤□□
14
□④□③ |①-②-|
④□□② |③---|
□□①④ |④---|
□□④□ |----|
15
□□□□ |①-②-|
□②④□ |③-④-|
⑤□□⑥ |⑤---|
①⑤⑥③ |⑥---|
16
□①①② |①-②-|
□③③④ |③-④-|
□⑤⑤□ |⑤---|
□□□□ |----|
17
□③①□ |①---|
①□□④ |----|
②□□① |②-③-|
□①⑤□ |④-⑤-|
18
①□□① |①---|
□□②□ |--②-|
③①□□ |③---|
④③□③ |--④-|
19
①②①② |①---|
③④③④ |②---|
②①②① |③---|
④③④③ |④---|
20
□①①□ |①---|
□□②□ |②-③-|
①③□① |④---|
□□④□ |----|
21
□④□① |①---|
□①□③ |----|
⑤□①□ |②-③-|
①□②□ |④-⑤-|
22
①□□① |①---|
□②□□ |--②-|
□□①③ |③---|
③□③④ |--④-|
23
②①②① |①---|
①②①② |②---|
④③④③ |③---|
③④③④ |④---|
24
①①①① |①---|
②③②③ |②---|
□③□③ |③---|
②□②□ |----|
25
□□□□ |①-②-|
⑤□④⑥ |③-④-|
□③②□ |--⑤-|
□①□□ |--⑥-|
26
□□□□ |①-②-|
□□□□ |③---|
□②①□ |----|
③□□□ |----|
27
□⑦⑦□ |①-②-|
□④⑥⑤ |③-④-|
□②③□ |--⑤-|
□□①□ |⑥-⑦-|
28
□④□□ |①---|
③□□□ |②---|
□②□□ |③---|
①□□□ |④---|
29
□□□□ |①---|
③□③□ |②---|
□②①② |③---|
②③②③ |④---|

□④□④
□□□□
④□④□
□□□□
30
①□①□ |①---|
④①③① |②-③-|
□□□□ |④---|
②④□③ |⑤-⑥-|

□□⑥⑥
□□□□
□□⑤⑤
□□□□
31
□①⑤□ |①---|
□⑥□⑤ |②-③-|
①③⑥④ |④---|
③□④② |⑤-⑥-|
32
□□□□ |①---|
②□□③ |②---|
①③□② |③---|
②①□③ |④---|

④□□□
□□□□
④□□□
□□④□
33
□①□① |①---|
②③□□ |②-③-|
□□④① |④---|
□⑤□□ |⑤---|
34
□①□① |①---|
①③①④ |②-③-|
□□□□ |④---|
③□④② |⑤-⑥-|

⑥⑥□□
□□□□
⑤⑤□□
□□□□
35
□□①□ |①---|
②□□□ |②-③-|
④□③① |④---|
□④□③ |⑤-⑥-|

□□□□
□⑥□□
□□□⑤
⑥□□□
36
③③③□ |①---|
⑤□②① |②---|
□④④④ |③---|
⑤②①□ |④-⑤-|
37
□③□④ |①---|
□□□① |②-③-|
③□④□ |④---|
□⑤②① |⑤---|
38
①□①□ |①---|
④①③① |②-③-|
□□□□ |④---|
②④□③ |⑤-⑥-|

□□⑥⑥
□□□□
□□⑤⑤
□□□□
39
□①⑤□ |①---|
□⑥□⑤ |②-③-|
①③⑥④ |④---|
③□④② |⑤-⑥-|
40
□□□□ |①---|
②□□③ |②---|
①③□② |③---|
②①□③ |④---|

④□□□
□□□□
④□□□
□□④□
41
□①□① |①---|
②③□□ |②-③-|
□□④① |④---|
□⑤□□ |⑤---|
42
□□⑥□ |①-②-|
□□⑤② |③-④-|
③□□□ |⑤---|
⑦□①④ |⑥-⑦-|
43
□③⑥□ |①--②|
①⑤②④ |--③-|
④②⑤① |④--⑤|
□⑥③□ |--⑥-|
44
①⑦⑥② |①---|
⑤□①④ |②-③-|
⑦①□⑥ |④-⑤-|
③⑤④① |⑥-⑦-|
45
④⑥⑦□ |①--②|
□□③② |③-④-|
⑥①①⑦ |⑤-⑥-|
□⑤⑤□ |⑦---|
最終更新:2023年11月01日 21:55