アットウィキロゴ
BPM:153
1
①□①⑤ |①-②-|
□②□□ |③-④-|
③□□□ |--⑤-|
□④□⑥ |--⑥-|
2
□④□⑤ |①-②-|
□③⑥□ |③-④-|
①②①⑦ |⑤-⑥-|
□□⑧□ |⑦-⑧-|
3
①□①□ |①-②③|
□②□□ |④⑤⑥⑦|
□□③□ |⑧⑨⑩⑪|
□□□□ |⑫⑬⑭⑮|

⑭⑩⑬⑤
⑥□⑨□
□⑧□⑦
④⑫⑪⑮
4
□□□④ |①-②-|
□①③□ |③-④-|
□□□② |⑤-⑥-|
①□□□ |⑦-⑧-|

□⑤□□
⑥□□□
□⑦□□
⑧□□□
5
①□①⑤ |①-②-|
□②□□ |③-④-|
③□□□ |--⑤-|
□④□⑥ |--⑥-|
6
□④□⑤ |①-②-|
□③⑥□ |③-④-|
①②①⑦ |⑤-⑥-|
□□⑧□ |⑦-⑧-|
7
①□①□ |①-②-|
□④□□ |③-④-|
③□□□ |--⑤-|
□②□□ |⑥-⑦-|

□□⑦□
□□□⑥
□□⑤□
□□□□
8
①①□② |--①-|
□□②□ |②-③-|
□③□□ |④-⑤-|
③□□□ |⑥-⑦-|

⑦⑦□□
⑤□□④
⑤□□④
□□⑥⑥
9
④□□② |①---|
□③①③ |②---|
□③③③ |③---|
□□③□ |--④-|
10
□□□④ |--①-|
□③⑤□ |②-③-|
②⑥□□ |④-⑤-|
□①□□ |⑥-⑦⑧|

□□□□
□□□□
□□□□
⑦⑧□□
11
③③③□ |①---|
③□③□ |②---|
□③②□ |③---|
④□□① |--④-|
12
⑧□⑦□ |--①-|
□⑥③□ |②-③-|
□□⑤② |④-⑤-|
□□①④ |⑥⑦⑧-|
13
④□③③ |①---|
□□③③ |②---|
□②③③ |③---|
①①□□ |--④-|
14
□□⑧⑦ |--①-|
□③⑥□ |②-③-|
②⑤□□ |④-⑤-|
④①□□ |⑥-⑦⑧|
15
①□□□ |①---|
□□□② |----|
□□□□ |----|
□③□□ |②-③-|
16
②□①① |--①-|
④②□□ |②-③-|
④□③□ |④-⑤⑥|
□□□③ |⑦⑧⑨⑩|

□□□□
□⑩⑦⑤
□⑧□⑤
□⑥⑨□
17
②□①④ |①---|
□□□□ |②---|
③③③③ |③---|
③□□③ |--④-|
18
④□□□ |--①-|
□⑤③□ |②-③-|
□□⑥② |④-⑤-|
□□①□ |⑥-⑦⑧|

□□□□
□□□□
□□□□
□□⑧⑦
19
□③③□ |①---|
□③③□ |②---|
③②□③ |③---|
①□□④ |--④-|
20
□□□⑧ |--①-|
□③⑦□ |②-③-|
②⑥□□ |④⑤⑥-|
④①⑤□ |⑦-⑧-|
21
①①②④ |①---|
③□□③ |②---|
□③③□ |③---|
③□□③ |--④-|
22
⑦⑧□□ |--①-|
□⑥③□ |②-③-|
□□⑤② |④-⑤-|
□□①④ |⑥-⑦⑧|
23
□□□① |①---|
□□□□ |----|
②□□③ |----|
□②③□ |②-③-|
24
①□□④ |--①-|
⑤②⑦⑥ |②-③-|
⑨⑧③□ |④-⑤-|
□□□□ |⑥⑦⑧⑨|
25
②②②□ |①---|
□③□□ |②---|
□□③□ |③---|
④①①① |④---|
26
□□□② |①---|
①□④□ |②-③-|
□□□□ |----|
□□□③ |④---|
27
④□□② |①---|
①□③② |②---|
①③□② |③---|
①□□□ |④---|
28
□□①□ |①---|
□□④□ |②-③-|
□□□□ |----|
③□□② |④---|
29
②②②⑤ |①---|
□③□□ |②---|
□□③□ |③---|
④①①① |④-⑤-|
30
□□③□ |--①-|
□④①□ |--②-|
□②⑤□ |③-④-|
□⑥□□ |⑤-⑥-|
31
②□□③ |①---|
□□□① |----|
□□□□ |----|
□□□□ |②-③-|
32
□①④□ |--①-|
⑤□②□ |②-③-|
□③□⑥ |④-⑤-|
⑦□□□ |⑥-⑦-|
33
③③③□ |①-②-|
□□□② |③-④-|
□④□□ |⑤-⑥-|
□①①① |⑦-⑧-|

□□□□
□⑤⑥□
□□⑤□
⑦□⑧□
34
⑤□□③ |①-②-|
①□⑦□ |③-④-|
□⑧⑥② |⑤-⑥-|
□□⑨④ |⑦⑧⑨-|
35
□④□③ |①-②-|
①②□③ |③-④-|
①□□③ |⑤-⑥-|
①□□□ |⑦-⑧-|

⑦□□□
□⑧⑤□
□⑤□□
□□⑥□
36
□□①⑦ |①-②-|
□⑥⑨⑧ |③-④-|
⑪⑩⑤□ |⑤⑥⑦-|
④②□③ |⑧⑨⑩⑪|
37
③③③⑧ |①-②-|
②⑤□⑤ |③-④-|
□⑥④⑧ |⑤-⑥-|
⑦①①① |⑦-⑧-|
38
□②⑤□ |①-②-|
①⑥②□ |③-④-|
□④⑦□ |⑤-⑥-|
□⑧③③ |⑦-⑧-|
39
⑦□□⑧ |①-②-|
②□□① |③-④-|
④□□③ |⑤-⑥-|
⑥□□⑤ |⑦-⑧-|
40
□②①□ |--①-|
②⑦③① |②-③-|
□④⑥③ |④-⑤-|
□□□⑤ |⑥-⑦-|
41
①□①③ |①-②-|
□□□□ |③-④-|
□□□④ |⑤-⑥-|
②□②□ |⑦-⑧-|

⑦□□□
⑤□⑤□
⑧□□□
□⑥□⑥
42
⑤③①□ |①-②-|
③②③① |③-④-|
□③②③ |⑤---|
⑥□③④ |⑥---|
43
③□□□ |①-②-|
①□①□ |③-④-|
④□□□ |⑤-⑥-|
□②□② |⑦-⑧-|

□⑤□⑤
⑦□□□
□□□⑧
⑥□⑥⑧
44
□□②□ |--①-|
□②①② |②---|
②①②□ |③-④-|
□②□□ |⑤-⑥-|

③□□□
⑤□⑥□
□□□□
□□□④
45
⑤①⑤① |①-②-|
□③□⑧ |③-④-|
④□⑦□ |⑤-⑥-|
②⑥②⑥ |⑦-⑧-|
46
□⑦□① |①-②-|
②⑥□□ |③-④-|
□⑤□③ |--⑤-|
④□□□ |⑥-⑦-|
47
②□□③ |①---|
□□①□ |②---|
□□□□ |----|
□□□□ |③---|
48
□①②□ |--①-|
①□④② |②-③-|
③⑤□□ |④-⑤-|
③⑦□⑥ |⑥-⑦-|
49
⑨①⑥⑧ |①-②③|
①③④⑥ |④-⑤-|
⑦□□② |⑥-⑦⑧|
⑤⑦②⑩ |⑨-⑩-|
50
□③□□ |①-②-|
③①③□ |③-④-|
□③②③ |⑤-⑥-|
④□③□ |⑦-⑧-|

⑦□□⑤
□□□□
□□⑧□
□□□⑥
51
□□①□ |①-②③|
□④③① |④-⑤-|
②□□□ |⑥-⑦⑧|
□②□⑤ |⑨-⑩-|

⑧⑥□⑨
⑥□⑩□
□⑩□⑦
□□⑦□
52
□□③□ |①-②-|
□③□③ |③---|
③□③□ |④-⑤-|
①③□② |⑥-⑦-|

④□□⑤
□□□□
□□□□
⑥□□⑦
53
□④④④ |①---|
①□③□ |②---|
①②③□ |③---|
□②□□ |--④-|
54
□□□□ |--①-|
□②②□ |--②-|
□②②□ |----|
①①①□ |----|
55
①⑤①□ |①---|
⑤③⑤③ |②---|
④⑤④⑤ |③---|
□②⑤② |④-⑤-|
56
①□④④ |--①-|
⑤⑤□② |②-③-|
⑦⑦⑥⑥ |④-⑤-|
⑦③□⑥ |⑥-⑦-|
最終更新:2023年11月01日 21:55