アットウィキロゴ
BPM:137
1
□□③□ |----|
□□□□ |----|
①□□□ |----|
□②□□ |①②-③|
2
□□□⑤ |①-②-|
④③②① |③-④-|
⑩⑧⑨⑩ |⑤-⑥⑦|
□⑥⑦□ |⑧⑨-⑩|
3
①⑥□① |--①-|
⑤④③② |-②③④|
□□□□ |--⑤⑥|
⑦□⑧□ |-⑦-⑧|
4
□□□⑤ |①-②-|
⑨⑦⑨⑦ |③-④-|
④③②① |⑤-⑥-|
⑥⑧⑥⑧ |⑦⑧-⑨|
5
□⑤⑤□ |-①②③|
⑦□□⑦ |④-⑤-|
④③②① |⑥-⑦-|
⑥⑧⑧⑥ |⑧---|
6
①③⑤⑦ |①-②-|
⑥□⑨⑤ |③-④-|
④③②① |⑤--⑥|
□⑧□□ |⑦⑧-⑨|
7
⑥⑧⑥□ |-①②③|
⑦□□⑨ |④-⑤-|
④③②① |⑥-⑦⑧|
□⑨⑤⑩ |-⑨-⑩|
8
⑦□④⑦ |①②-③|
□②□□ |④-⑤-|
③⑥①⑥ |⑥--⑦|
⑤□⑤□ |-⑧⑨⑩|

□□□□
□⑩⑨⑧
□□□□
□□□□
9
⑤⑨④⑥ |①-②-|
①□⑧□ |③-④-|
⑨⑦□② |⑤-⑥-|
□③□□ |⑦⑧-⑨|
10
⑨⑨□□ |--①-|
⑥⑤□② |②-③④|
⑧⑧④□ |⑤-⑥⑦|
□③①⑦ |-⑧-⑨|
11
□□⑤⑤ |----|
②□③□ |--①-|
□④⑥⑥ |②-③④|
□□□① |-⑤-⑥|
12
①□□□ |----|
⑥⑥□② |--①-|
□③□□ |②-③④|
⑤⑤④□ |-⑤-⑥|
13
□①①□ |---①|
□□□□ |----|
□□□② |--②-|
□□②□ |③④-⑤|

□⑤□□
⑤④□□
□□③□
□□□□
14
□⑤④□ |--①-|
⑤⑥③④ |②③-④|
①②⑦⑧ |--⑤-|
□①⑧□ |⑥⑦-⑧|
15
⑨□□① |--①②|
□⑧②□ |③④-⑤|
⑤③⑦□ |----|
④⑤□⑥ |⑥⑦⑧⑨|
16
□□□□ |--①-|
⑤⑧③⑤ |②-③④|
②④⑦① |--⑤-|
⑥②①⑥ |⑥-⑦⑧|
17
□①①□ |--①-|
□□□□ |----|
□□□□ |---②|
□□□□ |-③-④|

□④□□
□□③□
④②□③
②□□□
18
⑦⑦□□ |--①-|
□⑤④② |②-③-|
⑧⑧⑥□ |④-⑤⑥|
□③①□ |-⑦-⑧|
19
□□⑤⑤ |----|
②□③□ |--①-|
□④⑥⑥ |②-③④|
□□□① |-⑤-⑥|
20
①□④④ |----|
□□□② |--①-|
□③⑤⑤ |②-③④|
⑥⑥□□ |-⑤-⑥|
21
□□□□ |---①|
①□□① |----|
□□□□ |--②-|
□□□□ |③④-⑤|

□⑤□□
⑤④□□
□□③②
□□②□
22
□⑤④□ |--①-|
⑤⑥③④ |②③-④|
①②⑦⑧ |--⑤-|
□①⑧□ |⑥⑦-⑧|
23
③⑦①③ |--①②|
□□⑤① |-③-④|
②⑥□⑦ |----|
④②□④ |⑤⑥-⑦|
24
□⑧④□ |--①②|
⑦①⑤③ |-③-④|
④⑥②⑧ |--⑤⑥|
□③⑦□ |-⑦-⑧|
25
⑤□□□ |----|
□③②② |----|
□⑤④□ |①-②-|
①①□□ |③④-⑤|
26
□□①□ |-①--|
□□②□ |②-③-|
□□□① |④--⑤|
③□□□ |---⑥|

□⑤□□
□⑥□□
④□⑥⑤
□④□□
27
⑦□⑤① |-①②③|
□⑧②⑥ |④-⑤-|
⑤③⑨□ |⑥---|
④⑥□□ |-⑦⑧⑨|
28
□④□④ |①-②-|
②□②□ |③-④-|
□□□□ |⑤-⑥⑦|
③□③① |-⑧-⑨|

⑧□⑧□
□⑥□□
□⑤⑦⑤
□□⑨□
29
⑥⑥⑥□ |-①②③|
①⑤⑥② |④-⑤-|
□⑥⑤□ |⑥---|
③⑥□④ |---⑦|

□□□□
⑦□□□
□□□□
⑦□□□
30
□②□① |-①--|
□②□□ |②-③-|
□□③① |④--⑤|
□□③□ |---⑥|

⑤□□□
□⑥⑥⑤
④□□□
□□□④
31
⑦⑥⑥④ |-①②③|
③⑧□□ |④-⑤-|
□□⑨② |⑥---|
①⑤⑤□ |-⑦⑧⑨|
32
□④□④ |①-②-|
②□②□ |③-④-|
□□□□ |⑤-⑥⑦|
③□③① |-⑧-⑨|

□□⑦□
⑨⑥⑨□
□⑤□⑤
□⑧□⑧
33
□④□③ |①---|
④②□□ |---②|
①□①⑤ |③---|
③□⑤□ |④-⑤-|
34
①□□③ |①②--|
⑤④②□ |③④--|
□①③⑤ |⑤---|
□□□□ |⑥-⑦-|

⑦□⑦□
□□□□
□□□□
□⑥□⑥
35
□④□② |①-②-|
④③③② |③-④⑤|
①③③⑤ |----|
①□⑤□ |⑥-⑦-|

□□□⑦
□□□□
□□□□
⑥□□□
36
①□□④ |①--②|
②①④⑤ |--③-|
③②⑤⑥ |④--⑤|
□③⑥□ |--⑥-|
37
⑥②□⑥ |①-②③|
□□③□ |④-⑤-|
④⑤⑤□ |⑥---|
①□□① |----|
38
□①③□ |①②--|
⑤④②⑤ |③④--|
①□□③ |⑤---|
□□□□ |⑥-⑦-|

□⑦□⑦
□□□□
□□□□
⑥□⑥□
39
②□⑥□ |①-②③|
□③□⑥ |④-⑤⑥|
⑤□④① |--⑦-|
□⑤□① |⑧-⑨-|

□⑦□⑦
⑧□⑧□
□⑨□⑨
□□□□
40
②□□□ |①--②|
□②□□ |--③-|
①□□□ |④--⑤|
③①□③ |--⑥-|

⑥⑥□⑤
□□⑤□
□□□④
□□④□
41
⑥□⑥□ |①---|
□⑤□⑤ |----|
①①③□ |②③-④|
④②④□ |-⑤-⑥|
42
□②□□ |--①-|
③④⑤⑥ |--②-|
①□□① |③④⑤⑥|
□□②□ |-⑦⑧⑨|

□□□□
□□□□
⑨⑧⑦□
□□□□
43
④□④□ |①②-③|
⑤□⑤□ |-④-⑤|
□□□① |--⑥-|
□③②③ |⑦⑧-⑨|

□⑨□⑨
□⑦□□
□⑥⑧⑥
□□□□
44
⑤□⑥⑤ |--①-|
□⑦③□ |--②-|
□④⑧□ |③④-⑤|
①②①② |-⑥⑦⑧|
45
⑥□⑥□ |--①-|
①⑤①⑤ |②---|
⑦④⑦□ |③④-⑤|
□②③② |-⑥-⑦|
46
⑤③□③ |--①②|
□⑥②□ |-③-④|
□④⑦④ |----|
□①□⑧ |⑤⑥⑦⑧|
47
□⑦□□ |①②③④|
⑤□⑥□ |⑤--⑥|
③④⑪⑩ |⑦---|
①②⑨⑧ |⑧⑨⑩⑪|
48
⑤⑥⑦□ |①-②③|
②③④① |④-⑤⑥|
⑫⑪⑩⑨ |⑦--⑧|
□⑧□□ |⑨⑩⑪⑫|
49
□□④□ |①--②|
③①③① |--③-|
□□□□ |-④⑤-|
②⑤②□ |⑥⑦⑧⑨|

⑥□□□
□⑦□□
□□⑧□
□□□⑨
50
□①□⑥ |-①-②|
□□⑤① |-③④⑤|
②④□□ |⑥---|
③□②□ |⑦---|

□□□□
⑦□□⑦
□□□□
□□□□
51
②②④④ |①---|
□□□□ |②---|
□□□□ |③---|
□①③□ |④---|
52
②②⑤④ |①---|
□□□□ |②---|
□□□□ |③-④-|
①□□③ |⑤---|
53
②②④④ |①---|
□□□□ |②---|
□①③□ |③---|
□□□□ |④---|
54
②②□□ |①---|
□□□□ |②---|
①□□□ |③-④-|
□□□□ |⑤-⑥-|

□⑥⑤④
□□□□
□□□③
□□□□
55
□⑤□□ |①---|
①□□② |②---|
④③③□ |③---|
□①②□ |④-⑤-|
56
□□②□ |①-②-|
□⑤□□ |③-④⑤|
□□④① |--⑥-|
□③③□ |⑦-⑧-|

□□□⑥
⑦□□□
□□□⑧
□□□□
57
□□□□ |①--②|
③③⑥⑥ |--③-|
②②⑤⑤ |④--⑤|
①①④④ |--⑥-|
58
□①①□ |①---|
④□□④ |----|
③□□③ |②-③-|
②□□② |④---|
59
①□□③ |①②--|
⑤②④□ |③④--|
□③①⑤ |⑤---|
□□□□ |⑥-⑦-|

⑦⑦□□
□□□□
□□□□
□□⑥⑥
60
□□④② |①-②-|
④③③② |③-④⑤|
①③③⑤ |----|
①⑤□□ |⑥-⑦-|

□□□⑦
□□□□
□□□□
⑥□□□
61
①□□④ |①--②|
②④①⑤ |--③-|
③⑤②⑥ |④--⑤|
□⑥③□ |--⑥-|
62
⑥□②⑥ |①-②③|
□③□□ |④-⑤-|
④⑤⑤□ |⑥---|
①□□① |----|
63
□③①□ |①②--|
⑤②④⑤ |③④--|
①□□③ |⑤---|
□□□□ |⑥-⑦-|

□□⑦⑦
□□□□
□□□□
⑥⑥□□
64
②⑥□□ |①-②③|
□□③⑥ |④-⑤⑥|
⑤④□① |--⑦-|
□□⑤① |⑧-⑨-|

□□⑦⑦
⑧⑧□□
□□⑨⑨
□□□□
65
②□□□ |①--②|
□□②□ |--③-|
①□□□ |④--⑤|
③□①③ |--⑥-|

⑥□⑥⑤
□⑤□□
□□□④
□④□□
66
□②□④ |①-②③|
□□⑤□ |-④⑤⑥|
①⑥①□ |⑦-⑧-|
⑦□③□ |⑨---|

□⑨□□
⑧□□⑨
□□⑧□
□□□□
67
①③①③ |①--②|
□⑤⑤□ |--③-|
□⑤⑤□ |-④--|
④②④② |⑤---|
68
④□□① |①-②-|
②⑤□□ |③-④⑤|
□□⑥□ |⑥⑦-⑧|
□□③⑦ |⑨-⑩-|

□⑩⑧□
□□□⑩
⑩□□□
□⑨⑩□
最終更新:2023年11月01日 21:56