アットウィキロゴ
BPM:150
1
□□②① |①-②-|
④③□□ |③-④-|
□□⑤□ |⑤-⑥-|
□⑥□□ |⑦⑧⑨⑩|

□□□⑦
□□⑧□
□⑨□□
⑩□□□
2
□□□□ |①---|
□□□□ |----|
□□□□ |②---|
□□①① |③---|

②□□<
②□□<
□□□□
□③③□

3□□□
3□□□
□□□□
□□□□
3
□③⑦⑤ |①②③-|
□④⑧⑥ |④⑤-⑥|
□⑨②□ |-⑦-⑧|
①□□⑩ |⑨-⑩-|
4
□③⑦⑤ |①②③-|
□④⑧⑥ |④⑤-⑥|
□⑨②□ |-⑦-⑧|
①□□⑩ |⑨-⑩-|
5
□③③⑤ |①-②-|
□⑦□□ |③-④-|
④□⑥② |⑤-⑥-|
⑧①①⑧ |⑦-⑧-|
6
□□③□ |①-②-|
②□⑤② |③-④-|
④①□④ |--⑤-|
□⑥⑥□ |⑥---|
7
⑩⑩□□ |①②③-|
④④⑧⑤ |④⑤-⑥|
⑦③⑥⑨ |⑦⑧-⑨|
①□⑪② |⑩-⑪-|
8
⑩⑩□□ |①②③-|
④④⑧⑤ |④⑤-⑥|
⑦③⑥⑨ |⑦⑧-⑨|
①□⑪② |⑩-⑪-|
9
□⑧⑨⑤ |①-②③|
□④□□ |④-⑤-|
⑥□③⑦ |⑥-⑦-|
①②□□ |⑧-⑨-|
10
①□□④ |①-②-|
□④①□ |③-④-|
□①④□ |----|
④③②① |----|
11
□⑧□⑧ |--①②|
⑦③②□ |③-④⑤|
□①□⑤ |--⑥-|
⑥□□④ |⑦-⑧-|
12
⑦□⑦□ |--①②|
□②③□ |③-④⑤|
⑤⑧①⑧ |--⑥-|
④⑥□⑥ |⑦-⑧-|
13
□□□□ |--①②|
□②③⑦ |③-④⑤|
⑤□①⑥ |-⑥⑦-|
④□□□ |⑧-⑨-|

⑧□□⑨
□□□□
□⑧⑨□
□□□□
14
□③④□ |①-②-|
③①②④ |③-④-|
□□□□ |--⑤-|
□①②□ |⑥-⑦-|

□□□□
□⑥□□
□□⑤□
□□⑦□
15
③③□⑤ |①-②-|
□□□④ |③-④⑤|
②□□□ |-⑥-⑦|
①②□① |⑧-⑨-|

□□□□
⑥⑥⑧□
□□⑦□
⑨□□⑨
16
④□②② |--①-|
③□□□ |②-③④|
□□□① |-⑤-⑥|
□□①□ |⑦-⑧-|

□□□□
□⑦⑤⑤
□⑥□□
□⑧⑧□
17
⑨□□⑨ |--①②|
③□⑧⑥ |③-④⑤|
□⑤②□ |⑥-⑦-|
①⑦□④ |⑧-⑨-|
18
□□②□ |--①-|
□⑤□□ |--②-|
①□④① |--③-|
③□□□ |④-⑤-|
19
>□□① |①---|
>□□① |②-③④|
□□□□ |--⑤-|
□□□□ |⑥-⑦-|

②□□□
②□⑦□
□⑥□③
□□④⑤

□□□2
□□□2
□□□□
□□□□
20
①□□< |①---|
①□□< |②-③④|
□□□□ |--⑤-|
□□□□ |⑥-⑦-|

□□□②
□⑦□②
③□⑥□
⑤④□□

2□□□
2□□□
□□□□
□□□□
21
⑥□①① |①-②-|
□⑥③□ |③-④-|
②□□⑤ |⑤-⑥-|
□④⑤□ |⑦-⑧-|

>□□⑦
>□□⑦
□□□□
⑧□□□
22
□①①□ |①-②③|
⑩⑦□□ |④-⑤⑥|
②③④⑨ |⑦-⑧-|
⑧□⑥⑤ |⑨-⑩-|

□□□1
□□□1
□□□□
□□□□
23
⑤①①□ |①-②③|
□□④④ |④-⑤-|
②③□□ |⑥---|
⑦⑥⑥⑧ |⑦-⑧-|
24
□①①⑤ |①-②③|
④④□□ |④-⑤-|
□□③② |⑥---|
⑧⑥⑥⑦ |⑦-⑧-|
25
□①①□ |①--②|
□□③□ |③-④-|
□②□□ |⑤-⑥-|
□④□□ |⑦-⑧-|

□□⑧⑤
⑥⑧□⑧
□□□□
□□⑦□
26
□②□□ |--①-|
②□□□ |--②-|
③□□① |--③-|
□□□① |----|
27
□□□□ |①---|
□□④□ |②-③-|
□③⑥□ |④---|
②①①⑤ |⑤-⑥-|
28
□⑤⑤□ |①-②-|
□①□④ |③-④-|
③□□□ |⑤---|
□□②□ |⑥---|

□□□□
□⑥⑥□
□□□□
⑥□□⑥
29
①⑦□① |①-②③|
⑦□□④ |④-⑤⑥|
□③⑥□ |⑦---|
□⑤②□ |⑧-⑨-|

□□□⑧
□⑧□□
□□□□
⑨□□⑨
30
①③⑥□ |①-②-|
□□①⑥ |③-④⑤|
□⑤②③ |⑥---|
□②④□ |--⑦⑧|

□□□□
□□□□
□□⑧□
□⑦□□
31
□□③③ |①-②-|
①①□□ |③-④-|
④□□② |⑤-⑥-|
④□□② |⑦-⑧-|

□⑦□□
⑦□⑤⑤
□⑥□⑧
□⑥⑧□
32
①⑤③② |①--②|
⑤①④② |--③-|
②④①⑤ |④-⑤-|
②③⑤① |--⑥-|

□□□□
□□□⑥
□□⑥□
□□□□
33
③③②② |①-②-|
⑥□□□ |--③-|
□⑤□□ |④⑤⑥-|
④□□① |--⑦-|

□□⑦□
□□□□
□□□⑦
□□□□
34
□⑤□② |①-②-|
□□□□ |--③-|
③⑤②□ |④-⑤-|
④③□① |--⑥-|

⑥□□□
□□□□
□□□□
□□□⑥
35
□③④⑥ |①---|
①⑤⑦② |②-③-|
②⑦⑤① |④-⑤-|
⑥④③□ |⑥-⑦-|
36
①④□□ |①---|
②□□③ |②-③-|
③□□② |④---|
□□④① |⑤---|

□□□□
□□⑤□
□□□□
□⑤□⑤
37
⑩⑩⑧⑤ |①②③-|
④④□⑥ |④⑤-⑥|
⑦③②⑨ |⑦⑧-⑨|
①□⑪□ |⑩-⑪-|
38
⑩⑩⑧⑤ |①②③-|
④④□⑥ |④⑤-⑥|
⑦③②⑨ |⑦⑧-⑨|
①□⑪□ |⑩-⑪-|
39
□□□① |--①-|
□②□□ |②-③-|
□①②□ |④-⑤-|
③□□③ |⑥-⑦-|

□⑤⑦□
⑥□④□
④□□⑥
□⑦⑤□
40
③⑨⑨② |①-②-|
□①④② |③④⑤-|
⑤①⑧⑥ |⑥-⑦⑧|
□⑦□⑥ |⑨---|
41
①⑦□① |①-②③|
⑦□□④ |④-⑤⑥|
□③⑥□ |⑦---|
□⑤②□ |⑧-⑨-|

□□□⑧
□⑧□□
□□□□
⑨□□⑨
42
①③⑥□ |①-②-|
□□①⑥ |③-④⑤|
□⑤②③ |⑥---|
□②④□ |--⑦-|

⑦□□□
□□⑦□
□□□□
□□□□
43
□④□① |①-②-|
④①□□ |③-④-|
□②②③ |⑤-⑥-|
□□③□ |⑦-⑧-|

□□⑥□
□⑧⑧⑥
⑦□□□
⑤⑦□⑤
44
②③□② |①---|
③□□□ |②-③-|
□①①④ |④---|
□□④□ |⑤⑥⑦⑧|

□□□□
□⑤⑥□
□⑦⑧□
□□□□
45
⑤③②② |①-②-|
□□④□ |--③-|
③⑤□□ |--④-|
①①□④ |⑤---|
46
□□□□ |①-②-|
①①□□ |③---|
□□②② |④---|
□□□□ |⑤⑥⑦-|

>□□③
>□□③
□□□□
④④□□

□□□□
□⑦⑥□
□⑤□□
□□□□

□□□4
□□□4
□□□□
□□□□
47
②②③□ |①-②-|
□□□□ |--③-|
□□□③ |--④-|
□□①① |⑤-⑥-|

□⑥□⑤
□④□□
□□⑤□
④□□□
48
□□□□ |①-②-|
□□①① |③---|
②②□□ |④---|
□□□□ |⑤⑥⑦⑧|

③□□<
③□□<
□□□□
□□□□

□□□⑤
□□⑥□
□⑦□□
⑧④④□

4□□□
4□□□
□□□□
□□□□
49
□①①□ |①---|
□□□④ |②-③-|
□□③□ |④-⑤⑥|
□□□② |-⑦⑧-|

□⑧□□
⑥⑦□□
⑤□□□
□□□□
50
⑥□□④ |①---|
⑤□③□ |②-③-|
□□□② |④-⑤⑥|
□①①□ |--⑦-|

□⑦□□
□□□□
□□□□
□□⑦□
51
□□□⑤ |①-②-|
③①②④ |--③-|
④②①③ |④-⑤-|
⑤□□□ |--⑥-|

□□□□
□⑥□□
□□□□
□⑥□□
52
□□①□ |①-②-|
③□④□ |③-④-|
⑤②①⑤ |⑤---|
④□③□ |⑥-⑦-|

⑦⑦⑦⑦
□⑥□□
□□⑥□
□□□□
53
④□□④ |--①-|
③□□③ |--②-|
②□□② |--③-|
①①①① |--④-|
54
□⑤⑤□ |①-②-|
□①□④ |③-④-|
③□□□ |⑤---|
□□②□ |----|
55
⑤⑤⑤⑤ |①-②-|
④⑥①⑦ |③-④-|
⑥□⑦③ |⑤---|
②②□② |⑥-⑦-|
56
□③④□ |①-②-|
④□□□ |③-④-|
□②□□ |⑤-⑥-|
①□②① |⑦---|

□□□□
□⑦⑦□
⑤□□⑥
⑦⑥□⑦
57
①□□① |①-②③|
⑦⑧□④ |④-⑤⑥|
□③⑥□ |⑦---|
□⑤②⑨ |⑧-⑨-|
58
①③□□ |①-②-|
□□□⑥ |③-④⑤|
□⑤②□ |⑥---|
□□④□ |--⑦⑧|

□□□□
□□□□
□□⑧□
□⑦□□
59
□□③□ |①-②-|
⑦①□⑤ |③-④-|
④□□□ |⑤-⑥-|
□⑥⑧② |⑦-⑧-|
60
①⑤③② |①--②|
⑤①④② |--③-|
②④①⑤ |④-⑤-|
②③⑤① |--⑥-|

□□□□
□□□⑥
□□⑥□
□□□□
61
③③②② |①-②-|
⑥□□□ |--③-|
□⑤□□ |④⑤⑥-|
④□□① |--⑦-|

□□⑦□
□□□□
□□□⑦
□□□□
62
□⑤⑥② |①-②-|
□□□⑥ |--③-|
③⑤②□ |④-⑤-|
④③□① |--⑥-|
63
⑤③□⑤ |①---|
③①④□ |②-③-|
②④①⑥ |④-⑤-|
⑦②⑥⑦ |⑥-⑦-|
64
□④①□ |①---|
④②□① |②-③-|
③□②□ |④---|
□③□□ |⑤---|

⑤□□□
□□□⑤
□□□□
□□□⑤
65
⑩⑩⑧⑤ |①②③-|
④④⑪⑥ |④⑤-⑥|
⑦③②⑨ |⑦⑧-⑨|
①□□□ |⑩-⑪-|
66
⑩⑩⑧⑤ |①②③-|
④④⑪⑥ |④⑤-⑥|
⑦③②⑨ |⑦⑧-⑨|
①□□□ |⑩-⑪-|
67
□⑤⑦③ |--①-|
⑦②⑤③ |②-③-|
②□①⑥ |④-⑤-|
④⑥①④ |⑥-⑦-|
68
③⑨⑨② |①-②-|
□①④② |③④⑤-|
⑤①⑧⑥ |⑥-⑦⑧|
□⑦□⑥ |⑨---|
69
①⑦□① |①-②③|
⑦□□④ |④-⑤⑥|
□③⑥□ |⑦---|
□⑤②□ |⑧-⑨-|

□□□⑧
□⑧□□
□□□□
⑨□□⑨
70
①③⑥□ |①-②-|
□□①⑥ |③-④⑤|
□⑤②③ |⑥---|
□②④□ |----|
71
③□□□ |--①②|
□□□□ |③-④-|
□□②□ |⑤-⑥-|
□①□④ |⑦-⑧-|

□⑤⑦□
□□□□
□□□□
□⑧⑥□
72
④□□① |①-②-|
□①④② |③-④-|
□④①③ |--⑤⑥|
①□□④ |⑦---|

□⑤⑥⑦
□□□□
□□□□
□□□□
最終更新:2023年11月01日 21:56