アットウィキロゴ
やっぱり雨は降るんだね
ツユ

BASIC

Level: 2
BPM: 130
Notes: 170

1
口口口口 |----|
口口口口 |----|
口口口口 |----|
口口口口 |----|
2
口口口口 |①---|
口口②① |----|
口口口口 |②---|
口口口口 |----|
3
口口口口 |①---|
②①口口 |----|
口口口口 |②---|
口口口口 |----|
4
口口口口 |①---|
口口口口 |----|
①②口口 |②---|
口口口口 |----|
5
口口口口 |①---|
口口口口 |----|
口口①② |②---|
口口口口 |----|
6
口口口口 |①---|
口口②① |----|
口口口口 |②---|
口口口口 |----|
7
口口口口 |①---|
②①口口 |----|
口口口口 |②---|
口口口口 |----|
8
口口口口 |①---|
口口口口 |----|
①②口口 |②---|
口口口口 |----|
9
口口口口 |①---|
口口口口 |----|
口口①② |②---|
口口口口 |----|
10
口口口口 |①---|
口②口口 |----|
口口口口 |②---|
口①口口 |----|
11
口口口口 |①---|
口口②口 |----|
口口口口 |②---|
口口①口 |----|
12
口口口口 |①---|
口②口口 |----|
口口口口 |②---|
口①口口 |----|
13
口口口口 |①---|
口口②口 |----|
口口口口 |②---|
口口①口 |----|
14
口口口口 |①---|
口②口口 |----|
口口口口 |②---|
口①口口 |----|
15
口口口口 |①---|
口口②口 |----|
口口口口 |②---|
口口①口 |----|
16
口口口口 |①---|
口口口口 |----|
口①②口 |②---|
口口口口 |----|
17
口口口口 |①---|
口口口口 |----|
口口口口 |②---|
口①②口 |----|
18
口口口口 |①---|
口口口口 |----|
口①②口 |②---|
口口口口 |----|
19
口口口口 |①---|
①口口① |----|
口②口口 |②---|
口口口口 |----|
20
口口口口 |①---|
②口口② |----|
口口①口 |②---|
口口口口 |----|
21
口口②① |①---|
口口口口 |----|
口口口口 |②---|
口口口口 |----|
22
②①口口 |①---|
口口口口 |----|
口口口口 |②---|
口口口口 |----|
23
口口口口 |①---|
口口口口 |----|
口①②口 |②---|
口口口口 |----|
24
口口口口 |①---|
口口口口 |----|
口口口口 |②---|
口①②口 |----|
25
口口口口 |①---|
①口口① |----|
口口口口 |----|
口口口口 |----|
26
口口口口 |①---|
口口口口 |----|
口①②口 |②---|
口口口口 |----|
27
①口口口 |①---|
②口口口 |②---|
③口口口 |③---|
④口口口 |④---|
28
口口口③ |①---|
口②②口 |②---|
口①①口 |----|
口口口口 |③---|
29
口④②口 |①---|
口口③① |②---|
口口口口 |③---|
口口口口 |④---|
30
②口口口 |①---|
③①口口 |②---|
口④④口 |③---|
口口口口 |④---|
31
②口口② |①---|
口①①口 |----|
口口口口 |②---|
口口口口 |----|
32
口口口口 |①---|
①口口① |----|
②口口② |②---|
口口口口 |----|
33
口口口口 |①---|
口①①口 |----|
口②②口 |②---|
口口口口 |----|
34
口口口口 |①---|
口口口口 |----|
②口口② |②---|
口①①口 |----|
35
口口口① |①---|
口口口② |②---|
口口口③ |③---|
口口口④ |④---|
36
③口口口 |①---|
口②②口 |②---|
口①①口 |----|
口口口口 |③---|
37
口②④口 |①---|
①③口口 |②---|
口口口口 |③---|
口口口口 |④---|
38
口口口② |①---|
口口①③ |②---|
口④④口 |③---|
口口口口 |④---|
39
②口口② |①---|
口①①口 |----|
口口口口 |②---|
口口口口 |----|
40
口口口口 |①---|
①口口① |----|
②口口② |②---|
口口口口 |----|
41
口口口口 |①---|
口①①口 |----|
口②②口 |②---|
口口口口 |----|
42
口口口口 |①---|
口口口口 |----|
②口口② |②---|
口①①口 |----|
43
口口口口 |①---|
口①①口 |----|
口②②口 |②---|
口口口口 |----|
44
口①口口 |①---|
口口②口 |----|
口口口口 |②---|
口口口口 |----|
45
口口口口 |①---|
口口口口 |----|
口①口口 |②---|
口口②口 |----|
46
口口口口 |①---|
口口口口 |----|
口口②口 |②---|
口①口口 |----|
47
口口②口 |①---|
口①口口 |----|
口口口口 |②---|
口口口口 |----|
48
口①口口 |①---|
口口②口 |----|
口口口口 |②---|
口口口口 |----|
49
口口口口 |①---|
口口口口 |----|
口①口口 |②---|
口口②口 |----|
50
口口口口 |①---|
口口口口 |----|
口口②口 |②---|
口①口口 |----|
51
口口②口 |①---|
口①口口 |----|
口口口口 |②---|
口口口口 |----|
52
①口口口 |①---|
②口口口 |②---|
③口口口 |③---|
口口口口 |----|
53
口①口口 |①---|
口②口口 |②---|
口③口口 |③---|
口口口口 |----|
54
口口①口 |①---|
口口②口 |②---|
口口③口 |③---|
口口口口 |----|
55
口口口① |①---|
口口口② |②---|
口口口③ |③---|
口口口口 |----|
56
①口口口 |①---|
②口口口 |②---|
③口口口 |③---|
口口口口 |----|
57
口①口口 |①---|
口②口口 |②---|
口③口口 |③---|
口口口口 |----|
58
口口①口 |①---|
口口②口 |②---|
口口③口 |③---|
口口口口 |----|
59
口口口① |①---|
口口口② |②---|
口口口③ |③---|
口口口口 |----|
60
口口口口 |①---|
口①①口 |----|
口②②口 |②---|
口口口口 |----|
61
口口口口 |①---|
口口口口 |----|
口口口口 |----|
口①①口 |----|

accuracy: 100%
最終更新:2024年06月12日 10:26