アットウィキロゴ
やっぱり雨は降るんだね
ツユ

ADVANCED

Level: 5
BPM: 130
Notes: 298

1
口口口口 |----|
口口口口 |----|
口口口口 |----|
口口口口 |----|
2
口口口口 |①---|
①口口② |②---|
口③④口 |③---|
口口口口 |④---|
3
口口口口 |①---|
口④③口 |②---|
②口口① |③---|
口口口口 |④---|
4
口口口口 |①---|
①口口② |②---|
口③④口 |③---|
口口口口 |④---|
5
口口口口 |①---|
口④③口 |②---|
②口口① |③---|
口口口口 |④---|
6
口口口口 |①---|
①口口② |②---|
口③④口 |③---|
口口口口 |④---|
7
口口口口 |①---|
口④③口 |②---|
②口口① |③---|
口口口口 |④---|
8
口口口口 |①---|
①口口② |②---|
口③④口 |③---|
口口口口 |④---|
9
①口口① |①---|
口口口口 |----|
口口口口 |②---|
口②②口 |----|
10
口口口口 |①---|
①③口② |②---|
口口④口 |③-④-|
口⑤口口 |⑤---|
11
口口口口 |①---|
②口③① |②---|
口④口口 |③-④-|
口口⑤口 |⑤---|
12
口口口口 |①---|
①③口② |②---|
口口④口 |③-④-|
口⑤口口 |⑤---|
13
口口口口 |①---|
②口③① |②---|
口④口口 |③-④-|
口口⑤口 |⑤---|
14
口口口口 |①---|
①③口② |②---|
口口④口 |③-④-|
口⑤口口 |⑤---|
15
口口口口 |①---|
②口③① |②---|
口④口口 |③-④-|
口口⑤口 |⑤---|
16
①口口① |①---|
口口口口 |----|
口③②口 |②---|
口口口口 |③---|
17
①口口① |①---|
②口口② |----|
口口口口 |②---|
口口口口 |----|
18
口口口口 |①---|
口口口口 |②---|
口②①口 |③---|
口④③口 |④---|
19
①口口① |①---|
口③口口 |--②-|
口②④口 |③---|
口口口口 |④---|
20
口口口口 |①---|
口③③① |②---|
口口口口 |③---|
口②②口 |----|
21
①口口② |①-②-|
③口口④ |③-④-|
⑤口口⑥ |⑤-⑥-|
⑦口口⑧ |⑦-⑧-|
22
口⑦⑧口 |①-②-|
口⑤⑥口 |③-④-|
口③④口 |⑤-⑥-|
口①②口 |⑦-⑧-|
23
①口口① |①---|
口口③口 |--②-|
口④②口 |③---|
口口口口 |④---|
24
口口口口 |①---|
①④口口 |②---|
口口③口 |③---|
口②口口 |④---|
25
口口口口 |①---|
②口③② |--②-|
口①口口 |----|
口口口口 |③---|
26
口口口口 |①---|
口口口口 |②---|
口①口口 |----|
口口②口 |----|
27
口①①口 |①---|
③口口④ |②---|
⑤口口⑥ |③-④-|
口②②口 |⑤-⑥-|
28
③口③口 |①---|
口口口口 |②-③-|
口口④口 |----|
①②②口 |④---|
29
口口口口 |①-②-|
③⑦⑧④ |③-④-|
①⑤⑥② |⑤-⑥-|
口口口口 |⑦-⑧-|
30
①口口① |①---|
口口②口 |----|
口③口口 |②---|
口口口口 |③---|
31
口口口口 |①---|
口口②口 |--②-|
口口口口
口口①口

③口口③
口口口口
口口口口 |③---|
口④④口 |④---|
32
口④④口 |①-②-|
口口口口 |③---|
③②①口 |④---|
口⑤⑥口 |⑤-⑥-|
33
口口口口 |①---|
口口口口 |②-③-|
④③②口 |④---|
口⑤⑤① |⑤---|
34
口口口口 |①---|
①口口① |----|
口口口口
口口口口

口口口口
口口口③
口口②口 |②---|
口口口口 |③---|
35
口①①口 |①---|
④口口③ |②---|
⑥口口⑤ |③-④-|
口②②口 |⑤-⑥-|
36
口③口③ |①---|
口④口口 |②-③-|
口口口口 |----|
口②②① |④---|
37
口口口口 |①-②-|
④⑧⑦③ |③-④-|
②⑥⑤① |⑤-⑥-|
口口口口 |⑦-⑧-|
38
①口口① |①---|
②口口② |②---|
口④③口 |--③-|
口口⑤口 |④-⑤-|
39
口口口口 |①---|
口②口口 |--②-|
口口口口
口①口口

③口口③
口口口口
口口口口 |③---|
口④④口 |④---|
40
口③③口 |①---|
②①①② |②---|
口口口口 |③---|
口⑤④口 |④-⑤-|
41
口口口口 |①---|
口口口口 |②-③-|
口②③④ |④---|
①⑤⑤口 |⑤---|
42
口②口口 |①---|
①口口① |②---|
⑥⑤④③ |③-④-|
口口口口 |⑤-⑥-|
43
口①①④ |①---|
③口口⑤ |--②-|
口②⑥口 |③-④-|
口口口口 |⑤-⑥-|
44
口口①口 |----|
口②③口 |①---|
口口口口 |②---|
口口口口 |③---|
45
口口口口 |①---|
口口口口 |②---|
口①②口 |③---|
口③④口 |④---|
46
口口口口 |①---|
口口口口 |②---|
③口口④ |③---|
①口口② |④---|
47
③口口④ |①---|
①口口② |②---|
口口口口 |③---|
口口口口 |④---|
48
口①②口 |①---|
口③④口 |②---|
口口口口 |③---|
口口口口 |④---|
49
口口口口 |①---|
口口口口 |②---|
口①②口 |③---|
口③④口 |④---|
50
口口口口 |①---|
口口口口 |②---|
③口口④ |③---|
①口口② |④---|
51
③口口④ |①---|
①口口② |②---|
口口口口 |③---|
口口口口 |④---|
52
口口口口 |①---|
口②③口 |②---|
口①④口 |③---|
口口口口 |④---|
53
口口口口 |①---|
口②③口 |②---|
口①④口 |③---|
口口口口 |④---|
54
①口口口 |①---|
口口口② |②---|
③口口口 |③---|
口口口④ |④---|
55
口口口④ |①---|
③口口口 |②---|
口口口② |③---|
①口口口 |④---|
56
口口口口 |①---|
口③②口 |②---|
口④①口 |③---|
口口口口 |④---|
57
口口口口 |①---|
口③②口 |②---|
口④①口 |③---|
口口口口 |④---|
58
口口口口 |①---|
④③②① |②---|
口口口口 |③---|
口口口口 |④---|
59
①口口① |①---|
口口口口 |----|
口口口口 |----|
口②③口 |②-③-|
60
口口口口 |①---|
口口口口 |②-③-|
④③②口 |④---|
口⑤⑤① |⑤---|
61
口口口口 |①---|
①口口① |----|
口口口口 |----|
口口口口 |----|

accuracy: 100%
最終更新:2024年06月12日 10:28