アットウィキロゴ
やっぱり雨は降るんだね
ツユ

EXTREME

Level: 9.0
BPM: 130
Notes: 646

1
口口口口 |----|
口口口口 |----|
口口口口 |----|
口口口口 |----|
2
⑧⑨口⑦ |①-②-|
口口⑥口 |③-④-|
口⑤口口 |⑤-⑥-|
④③②① |⑦-⑧⑨|
3
口口①口 |①-②-|
口③口② |③-④-|
⑤口④口 |⑤-⑥-|
口⑦口⑥ |⑦---|
4
①②③④ |①-②-|
口口⑤口 |③-④-|
口⑥口口 |⑤-⑥-|
⑦口⑨⑧ |⑦-⑧⑨|
5
⑦口⑧口 |①-②-|
口④⑤⑥ |③-④⑤|
②口③口 |⑥-⑦-|
口①口口 |⑧---|
6
⑦⑥⑤④ |①-②-|
口口口③ |③-④-|
⑧⑨口② |⑤-⑥-|
口口口① |⑦-⑧⑨|
7
口口③口 |①-②-|
口④⑤⑥ |③-④⑤|
口⑦①口 |⑥-⑦-|
⑨②口⑧ |⑧-⑨-|
8
③口口③ |①-②-|
②④口⑤ |③-④-|
①口⑧⑥ |⑤-⑥-|
⑦口口⑦ |⑦-⑧-|
9
①口口口 |①-②③|
口④③② |④-⑤⑥|
⑤⑥⑦口 |⑦---|
⑧口口⑧ |⑧---|
10
④口⑧口 |①-②-|
⑤③③⑤ |③-④-|
⑥②②⑥ |⑤-⑥-|
⑦①①⑦ |⑦-⑧-|
11
口口口口 |①-②-|
口①①口 |③-④-|
口②②口
④③③口

口口口⑨
⑧⑦⑥⑤
口口口口 |⑤⑥⑦⑧|
口口口口 |⑨---|
12
④⑤口⑤ |①-②-|
③⑥③⑥ |③-④-|
②⑦②⑦ |⑤-⑥-|
①口①⑧ |⑦-⑧-|
13
④口口口 |①-②-|
③口③口 |③-④-|
②口②口
①口①口

口口口⑤
口⑥口口
口口⑦⑦ |⑤-⑥-|
口口口口 |⑦---|
14
口口⑤④ |①-②-|
③口口口 |③-④⑤|
②口口口
①①口口

口⑥口口
口⑦口口
口⑧口口 |⑥-⑦-|
⑨⑩口口 |⑧-⑨⑩|
15
口④⑤⑥ |①-②-|
口口③⑦ |③-④⑤|
口口②⑧ |⑥-⑦-|
口口①⑨ |⑧-⑨-|
16
③口口口 |①---|
口②口② |②-③-|
口口③口
①口①口

口口口④
⑦⑥⑤口
口④口口 |--④-|
口口口口 |⑤⑥⑦-|
17
口④口口 |①-②-|
口③口口 |--③④|
②口口②
口①①口

口口⑤口
⑥口口⑥
口口⑦口 |⑤-⑥-|
口口⑧口 |--⑦⑧|
18
④⑤口④ |①-②-|
③口⑥③ |③-④-|
②⑦口② |--⑤-|
口①口口 |⑥-⑦-|
19
口口口口 |①---|
口口③口 |②-③-|
口口口②
①口①口

⑤④口④
口口口口
口口口口 |④---|
口口⑤口 |⑤---|
20
口口③③ |①---|
④②②口 |②---|
①①口④ |③---|
口口⑤口 |④-⑤-|
21
口口口④ |①-②-|
口③②⑤ |③-④-|
①⑥⑦口 |⑤-⑥-|
⑧口口口 |⑦-⑧-|
22
③④④③ |①-②-|
②⑤⑤② |③-④-|
①⑥⑥① |⑤-⑥-|
⑧⑦⑦⑧ |⑦-⑧-|
23
①④口① |①---|
口口②② |--②-|
③③口口 |③---|
口口④口 |④---|
24
⑤④口口 |①---|
⑥口③③ |②---|
口②②口 |③-④-|
①①口口 |⑤-⑥-|
25
口口②口 |①---|
口③口口 |②-③-|
①口口①
口②口口

口口口口
口口口⑥
⑤口④口 |④---|
口口口口 |⑤-⑥-|
26
①③⑪② |①-②③|
⑤⑩④口 |④⑤⑥⑦|
⑨⑦口⑥ |⑧-⑨-|
口口⑧口 |⑩-⑪-|
27
①口口② |①---|
②口口① |②--③|
口③口口
口口口口

口口口口
⑦口口口
口口④⑥ |④-⑤-|
⑤口口口 |⑥-⑦-|
28
口①①口 |①---|
口③④④ |②-③-|
②口口③ |----|
⑤⑤②口 |④-⑤-|
29
⑧⑥口口 |①②③④|
④②口口 |⑤⑥⑦⑧|
口口⑤⑦
口口①③

口口口口
口口⑨口
口⑩口口 |⑨-⑩-|
⑪口口⑫ |⑪-⑫-|
30
口口口口 |①-②-|
口②口② |--③-|
①口①口
口③口口

⑥口口口
口⑦口口
口口④⑤ |-④⑤-|
口口口口 |⑥-⑦-|
31
口口口② |①---|
口口①口 |②-③-|
③①口口
口口口口

⑦口口口
口⑥⑤口
口口口口 |④--⑤|
口④口④ |⑥-⑦-|
32
口口口口 |①②③④|
①口口② |⑤⑥⑦-|
③⑦口④
⑤口口⑥

口口口⑨
⑩⑩⑧口
口口⑪⑪ |⑧-⑨-|
口口口口 |⑩-⑪-|
33
口口口口 |①---|
口口口口 |②-③-|
③③口口
①①②②

⑤口口口
口⑥④④
口口⑦口 |④-⑤⑥|
⑧口口口 |⑦-⑧-|
34
②口②口 |①---|
口口口③ |②-③-|
⑦①④① |④--⑤|
口⑤⑥口 |⑥-⑦-|
35
②口口① |①---|
①口口② |②--③|
口口③口
口口口口

口口口口
口口口⑦
⑥④口口 |④-⑤-|
口口口⑤ |⑥-⑦-|
36
口①①口 |①---|
④④③口 |②-③-|
③口口② |----|
口②⑤⑤ |④-⑤-|
37
口口⑥⑧ |①②③④|
口口②④ |⑤⑥⑦⑧|
⑦⑤口口
③①口口

口口口口
口⑨⑪口
口口口口 |⑨-⑩-|
⑫口口⑩ |⑪-⑫-|
38
口口③④ |①-②-|
口②口③ |③-④-|
①口②口
口①口口

⑤口口口
口⑥⑦口
口⑦⑥口 |--⑤-|
口口口⑤ |⑥-⑦-|
39
口口①⑦ |①---|
②⑤⑥口 |②-③-|
③口口② |④--⑤|
④①④口 |⑥-⑦-|
40
口口③口 |①---|
②口口① |②--③|
①口口②
口口口口

口④口口
口口⑤⑤
口⑥⑥口 |④---|
口口口口 |⑤-⑥-|
41
②②口口 |①---|
口③③口 |②-③-|
口口口口
①①口口

口口口口
口口口口
口⑧④④ |④-⑤⑥|
⑤⑥⑦口 |⑦-⑧-|
42
口口②口 |①---|
①口口① |②-③④|
口口口口
口③口④

口⑨⑩口
口⑦口⑧
口⑤口⑥ |⑤⑥⑦⑧|
口口口口 |⑨-⑩-|
43
口口口口 |①---|
②口①口 |--②-|
③口口口 |③-④-|
④⑤⑥口 |⑤-⑥-|
44
口⑤口口 |①-②③|
口②③④ |④-⑤-|
口口口口
口口口①

口口口口
口口口口
⑧⑦⑥口 |⑥⑦⑧-|
口⑩口⑨ |⑨-⑩-|
45
③④②① |①②③④|
⑦⑧⑥⑤ |⑤⑥⑦⑧|
⑪⑫⑩⑨ |⑨⑩⑪⑫|
⑮⑯⑭⑬ |⑬⑭⑮⑯|
46
⑧⑦⑥⑤ |①②③④|
④③②① |⑤⑥⑦⑧|
⑨⑩⑪⑫ |⑨⑩⑪⑫|
⑬⑭⑮⑯ |⑬⑭⑮⑯|
47
口④③⑤ |①②③④|
⑩②①⑪ |⑤-⑥⑦|
⑥⑦⑧⑨ |⑧⑨⑩-|
口⑫⑫口 |⑪-⑫-|
48
③④⑥⑤ |--①②|
⑦①②⑧ |③④⑤⑥|
⑨口口⑩ |⑦⑧⑨⑩|
⑪⑬⑭⑫ |⑪⑫⑬⑭|
49
⑤⑥⑧⑦ |①②③④|
口③④口 |⑤⑥⑦⑧|
口①②口
口口口口

口口口口
口口口口
口⑨⑩⑪ |-⑨⑩⑪|
⑫⑬⑭口 |⑫⑬⑭-|
50
①⑤②⑥ |①②③④|
③⑦④⑧ |⑤⑥⑦⑧|
⑨⑬⑩⑭ |⑨⑩⑪⑫|
⑪⑮⑫⑯ |⑬⑭⑮⑯|
51
口②②口 |--①-|
口①①口 |②-③④|
③口⑧④ |-⑤⑥-|
⑤⑦口⑥ |⑦-⑧-|
52
口②③口 |①-②③|
口④⑤① |④⑤⑥⑦|
①⑥⑦口
口口口口

口口口口
口口口口
⑪口口口 |-⑧⑨-|
⑧⑩口⑨ |⑩-⑪-|
53
口③②口 |①-②③|
①⑤④口 |④⑤⑥⑦|
口⑦⑥①
口口口口

口口口口
口口口口
口口口⑪ |-⑧⑨-|
⑨口⑩⑧ |⑩-⑪-|
54
⑤⑥④③ |①-②-|
口②口① |③④⑤⑥|
①口口口
口口口口

⑩口⑩口
口口⑦口
口⑧口⑧ |⑦--⑧|
⑨口⑨口 |-⑨-⑩|
55
口口口口 |-①-②|
口①口① |-③--|
②口②口
口③口③

口④⑤⑥
⑨⑧⑦口
口口口口 |④⑤⑥-|
口口口口 |⑦⑧⑨-|
56
⑮⑯⑭⑬ |①②③④|
⑪⑫⑩⑨ |⑤⑥⑦⑧|
⑦⑧⑥⑤ |⑨⑩⑪⑫|
③④②① |⑬⑭⑮⑯|
57
⑭⑫⑬⑪ |①②③-|
⑩⑧⑨⑦ |④⑤⑥-|
④⑤⑥口 |⑦⑧⑨⑩|
口③②① |⑪⑫⑬⑭|
58
⑤口⑤口 |①-②-|
口口口口 |③-④-|
口③⑦① |⑤---|
④⑥②口 |--⑥⑦|
59
口口口口 |①-②-|
口①口① |③-④-|
②③口③
④口口口

⑥口⑤口
⑧⑩⑦口
口口⑨口 |⑤⑥⑦⑧|
口口口口 |⑨-⑩-|
60
⑦⑥⑤① |①---|
口口口④ |②-③-|
⑧③⑧口 |④-⑤⑥|
口口②口 |⑦-⑧-|
61
口口口口 |①---|
口口口口 |----|
口口口口 |----|
口①口① |----|

accuracy: 100%
最終更新:2024年06月12日 10:28