アットウィキロゴ
BPM:135
1
□⑩④□ |①-②③|
⑩③⑨④ |④⑤⑥-|
⑥⑧②□ |⑦-⑧⑨|
①⑤⑪⑦ |⑩-⑪-|
2
□⑨③□ |-①-②|
⑨①⑧③ |③④⑤-|
④⑦□⑩ |⑥-⑦⑧|
⑤②⑩⑥ |⑨-⑩-|
3
□□④□ |①-②③|
□③□④ |④⑤⑥-|
⑥□②□ |⑦--⑧|
①⑤□⑦ |⑨⑩-⑪|

□⑨⑪□
⑨□⑧□
□□□□
□□⑩□
4
□□⑩② |①②③④|
⑨⑤⑧④ |⑤⑥⑦⑧|
③⑦⑥⑫ |⑨⑩⑪⑫|
①⑪□□ |⑬⑭⑮⑯|

□⑬□□
□□□⑭
⑮□□□
□□⑯□
5
①④③② |①-②-|
⑩⑤□⑤ |③-④-|
□③②④ |⑤-⑥⑦|
⑥⑦⑨⑧ |⑧⑨⑩-|
6
②③④① |①-②-|
⑤□⑤⑩ |③-④-|
④②③① |⑤-⑥⑦|
⑧⑨⑦⑥ |⑧⑨⑩-|
7
①④③② |①-②-|
⑩⑤□⑤ |③-④-|
①③②④ |⑤-⑥⑦|
⑥⑦⑨⑧ |⑧⑨⑩-|
8
⑤①⑥② |①②③④|
⑨□⑩□ |⑤⑥⑦⑧|
□③□④ |⑨⑩⑪⑫|
⑪⑦⑫⑧ |⑬⑭⑮⑯|

□□□□
□□□□
⑬⑭⑮⑯
□□□□
9
①③□⑦ |①-②③|
③①⑤② |④-⑤⑥|
□□⑦□ |⑦-⑧⑨|
□⑥□④ |⑩-⑪-|

⑩□⑨□
□□□□
□□□⑨
⑧□□⑪
10
⑤⑧□□ |①②--|
⑧⑦②□ |③-④-|
④①⑥⑧ |⑤-⑥⑦|
③④⑧⑤ |-⑧--|
11
□⑦①③ |①-②③|
⑦□③① |④-⑤⑥|
②⑤⑥⑧ |⑦⑧-⑨|
④□⑧□ |⑩⑪--|

⑨□□⑪
□⑨□⑩
□□□□
□□□□
12
□□②□ |①--②|
□□□□ |③---|
□□②□ |----|
①□□① |④⑤⑥⑦|

∨□□□
□□□□
③□□□
□③□<

□□□④
□□□⑤
4□□⑥
□4□⑦
13
①③⑨⑦ |①-②③|
③①⑦⑨ |④-⑤⑥|
⑩⑤④□ |⑦-⑧⑨|
⑧⑥②□ |⑩-⑪-|

□□□□
□⑪□□
□□⑪□
□□□□
14
①⑥④□ |①-②-|
□□□□ |③④-⑤|
⑤□□③ |⑥-⑦-|
□②②① |⑧---|

⑧□□⑧
□□□□
□⑦⑦□
□□□□
15
□⑥□⑦ |①-②-|
⑥④⑦③ |③-④⑤|
□⑦⑤② |-⑥-⑦|
⑦③②① |--⑧⑨|

⑧∨∨□
□□□□
□□□□
□⑨⑨□
16
②□□③ |----|
④□□⑤ |--①-|
⑥□□⑦ |②③④⑤|
⑧□□⑨ |⑥⑦⑧⑨|

□□□□
□□□□
□□□□
□11□
17
⑤①□□ |①-②③|
□□□□ |④-⑤-|
□③②□ |⑥⑦⑧⑨|
□□④□ |⑩⑪⑫-|

□□⑦⑥
□□⑨⑧
□□⑪⑩
□□□⑫
18
③⑦⑪② |①-②-|
□④⑧⑫ |③④⑤⑥|
⑤⑨⑬□ |⑦⑧⑨⑩|
①⑥⑩⑭ |⑪⑫⑬⑭|
19
⑤□⑦⑥ |①-②③|
③②⑨⑧ |④-⑤-|
□④⑪⑩ |⑥⑦⑧⑨|
①□□⑫ |⑩⑪⑫-|
20
⑪⑪□② |①-②-|
③⑥⑦⑩ |③④⑤⑥|
⑤④⑨⑧ |⑦⑧⑨⑩|
①□□□ |⑪---|
21
⑤□⑦⑥ |①-②③|
③②⑨⑧ |④-⑤-|
□④⑪⑩ |⑥⑦⑧⑨|
①□□⑫ |⑩⑪⑫-|
22
□③□② |①-②-|
□□④□ |③④⑤⑥|
□⑤□□ |⑦⑧⑨⑩⑪⑫|
①□⑥□ |⑬-⑭-|

⑦□⑭⑬
⑧□□⑫
⑨□□⑪
□□□⑩
23
⑤□□□ |①-②③|
③②□□ |④-⑤-|
□④□□ |⑥⑦⑧⑨|
①□□□ |⑩⑪⑫-|

□□⑦⑥
□□⑨⑧
□□⑪⑩
>□□⑫
24
①□□< |----|
□②□□ |--①-|
□□②□ |----|
□□□□ |②---|

2□□□
□□□□
□□□□
□□□2
25
⑥⑤□① |①--②|
□□②④ |-③-④|
⑤⑥□□ |⑤-⑥-|
①□③□ |⑦-⑧⑨|

□□□□
□□□□
□□□⑨
⑦□□⑧
26
□②⑤□ |-①-②|
③④⑧⑦ |-③-④|
④③□□ |--⑤-|
□□①⑥ |⑥-⑦⑧|
27
□⑨⑧□ |-①--|
□②⑦□ |②③④⑤|
⑨③⑥□ |⑥⑦⑧-|
①④⑤□ |-⑨--|
28
①□□□ |①-②-|
□③③② |③---|
□①□□ |④---|
□□②□ |⑤---|

□④□⑤
□□□□
□□□□
④□⑤□
29
①□②□ |①---|
□□□□ |②---|
□□□□ |③--④|
□①□② |⑤--⑥|

⑤③⑥□
□□□④
③⑤□□
□□□□
30
⑥□□⑤ |①②③-|
□□①□ |④-⑤⑥|
⑥□②⑤ |----|
□④③□ |----|
31
□③⑧□ |①②-③|
③□④⑧ |-④⑤-|
□⑦②□ |----|
①⑤□⑥ |⑥⑦-⑧|
32
∨□□⑥ |-①②-|
□①③□ |③--④|
□⑤④□ |⑤--⑥|
③□②⑦ |--⑦-|
33
□□①□ |①---|
①□□< |--②-|
□□□① |③-④-|
□□□□ |⑤-⑥-|

□⑥⑤④
□□□②
□⑥⑤④
□□②□

□□□□
3□□□
□□□□
1□□□
34
∨□③□ |①-②-|
□□□① |--③-|
□□□③ |④-⑤⑥|
②□①□ |⑦⑧-⑨|

⑨□□⑨
⑤⑥⑦⑧
□□□□
□□□□

□□□□
□□□□
□□□□
4□□□
35
□⑤③□ |--①-|
⑥∨∨⑥ |②③-④|
①⑦⑦① |--⑤-|
④②⑤④ |⑥-⑦-|
36
①③③② |①---|
□□□□ |--②-|
□□□□ |--③-|
④□□④ |④---|

□□□□
□□□□
□22□
□□□□
37
⑩⑥⑥⑩ |①②③④|
⑦②□④ |--⑤-|
①□③⑧ |⑥-⑦⑧|
⑨⑤⑤□ |⑨-⑩-|
38
□□④④ |--①-|
□③③□ |②-③-|
②②□□ |④-⑤⑥|
□①①□ |⑦⑧⑨⑩|

⑦⑤□□
□□□⑧
⑨□⑥□
□□□⑩
39
⑧⑩⑩⑦ |①-②③|
②③□⑨ |④⑤⑥⑦|
⑧⑥⑤④ |--⑧⑨|
①⑪⑪⑨ |⑩-⑪-|
40
□□⑨② |--①②|
⑨⑦④⑥ |③④⑤⑥|
⑤③⑧⑨ |⑦-⑧-|
①⑨□□ |⑨---|
41
①③□⑦ |①-②③|
□□⑤② |④-⑤⑥|
③①⑦□ |⑦-⑧⑨|
□⑥□④ |⑩-⑪-|

⑩□⑨□
□□□□
□□□⑨
⑧□□⑪
42
⑤⑧□□ |①②--|
⑧⑦②□ |③-④-|
④①⑥⑧ |⑤-⑥⑦|
③④⑧⑤ |-⑧--|
43
□⑦①③ |①-②③|
⑦□③① |④-⑤⑥|
②⑤⑥⑧ |⑦⑧-⑨|
④□⑧□ |⑩⑪--|

⑨□□⑪
□⑨□⑩
□□□□
□□□□
44
□□②□ |①--②|
□□□□ |③---|
□□②□ |----|
①□□① |④⑤⑥⑦|

∨□□□
□□□□
③□□□
□③□<

□□□④
□□□⑤
□□□⑥
□□□⑦

□□□□
□□□□
4□□□
□4□□
45
①③□⑦ |①-②③|
③①⑦□ |④-⑤⑥|
□⑤④□ |⑦-⑧⑨|
□⑥②□ |⑩-⑪-|

□□⑨□
□⑪□⑨
⑩□⑪□
⑧□□□
46
①⑥④□ |①-②-|
□□□□ |③④-⑤|
⑤□□③ |⑥-⑦-|
□②②① |⑧---|

⑧□□⑧
□□□□
□⑦⑦□
□□□□
47
□⑥□⑦ |①-②-|
⑥④⑦③ |③-④⑤|
□⑦⑤② |-⑥-⑦|
⑦③②① |--⑧⑨|

⑧∨∨□
□□□□
□□□□
□⑨⑨□
48
⑩⑪⑫⑬ |----|
⑥⑦⑧⑨ |--①-|
②③④⑤ |②③④⑤⑥⑦|
□□□□ |⑧⑨⑩⑪⑫⑬|

□□□□
□□□□
□□□□
□11□
49
∨□□□ |①--②|
□□□④ |-③-④|
□□□③ |-⑤⑥⑦|
①□□② |⑧⑨⑩⑪|

⑦□⑥⑩
□⑪□□
□⑨⑧□
□⑤□∧

□□□□
□□□□
□□□□
4□□□
50
□⑥□□ |①--②|
④□①□ |-③-④|
③□□□ |-⑤⑥-|
②□⑤□ |⑦⑧⑨⑩|

□□□□
□⑧⑦□
□⑩⑨□
□□□□

□□□4
□□□□
□□□□
□□□□
51
□⑥□∨ |①--②|
②□□□ |-③-④|
③□□□ |-⑤⑥-|
④□⑤① |⑦⑧⑨⑩|

⑩□□⑦
□□□□
□⑧⑨□
∧□□□

□□□□
□□□□
□□□□
□□□4
52
□□①□ |①--②|
□□□② |-③-④|
□□□③ |-⑤⑥-|
□□□④ |⑦⑧⑨⑩|

□□⑥□
□⑦⑧□
□⑨⑩□
□⑤□□

4□□□
□□□□
□□□□
□□□□
53
∨□□□ |①--②|
□□□② |-③-④|
□□□③ |-⑤⑥⑦|
①□□④ |⑧⑨⑩⑪|

⑦□⑥⑩
□⑪□□
□⑨⑧□
□⑤□∧

□□□□
□□□□
□□□□
4□□□
54
□⑥□□ |①--②|
②□①□ |-③-④|
③□□□ |-⑤⑥-|
④□⑤□ |⑦⑧⑨⑩|

□□□□
□⑧⑦□
□⑩⑨□
□□□□

□□□4
□□□□
□□□□
□□□□
55
□⑥□∨ |①--②|
②□□□ |-③-④|
③□□□ |-⑤⑥-|
④□⑤① |⑦⑧⑨⑩|

⑩□□⑨
□□□□
□⑧⑦□
∧□□∧

□□□□
□□□□
□□□□
□□□4
56
□□□□ |----|
□□□□ |----|
□□□□ |----|
□□□□ |----|
57
1□□1 |①---|
□□□□ |----|
□□□□ |----|
□□□□ |----|
最終更新:2024年09月14日 15:04