アットウィキロゴ
BPM:138
1
□□□□ |①---|
□□□□ |--②-|
②②□□ |----|
①①□□
2
②②□□ |①---|
①①□□ |--②-|
□□□□ |----|
□□□□
3
□□①① |①---|
□□②② |--②-|
□□□□ |----|
□□□□
4
□□□□ |①---|
□□□□ |--②-|
□□①① |----|
②②②②
5
①①①① |①---|
□□□② |--②-|
□③□□ |③-④-|
□□④□
6
□□□□ |①-②-|
①⑤□□ |③-④-|
□□②④ |⑤-⑥-|
□③□⑥
7
□□④□ |①-②-|
□⑤②□ |③-④-|
①□□⑥ |⑤-⑥-|
③□□□
8
□①□□ |①-②-|
□□②□ |③-④-|
③□□□ |----|
④④④④
9
①①①① |①---|
□□②□ |--②-|
□③□□ |③-④-|
□□□④
10
□□□④ |①-②-|
①⑤□□ |③-④-|
□□②□ |⑤-⑥-|
□③⑥□
11
□①□□ |①-②-|
□□□④ |③-④-|
□⑤②□ |⑤-⑥-|
③□□⑥
12
□①④□ |①-②-|
⑤□②□ |③-④-|
③□□⑥ |⑤-⑥-|
□□□□
13
□□□□ |--①-|
□□④□ |②---|
□②□③ |③-④-|
①□□□
14
□□①□ |--①-|
□④□② |②-③-|
⑤□③□ |④-⑤-|
□□□□
15
□□③③ |①---|
□□□□ |②-③-|
□□□□ |----|
□①②②
16
□②□□ |--①-|
①□③□ |②-③-|
□□□④ |④-⑤-|
□□⑤□
17
□□□□ |--①-|
□□④□ |②---|
□②□③ |③-④-|
①□□□
18
□□⑤□ |--①-|
□④□□ |②-③-|
①□③□ |④-⑤-|
□②□□
19
③③□□ |①---|
□□□① |②-③-|
□□□□ |----|
②②□□
20
□□①□ |①-②-|
□②□□ |③-④-|
⑤□③□ |--⑤-|
□④④□
21
□①①□ |①-②-|
□□⑥□ |③-④-|
□③□⑤ |⑤-⑥-|
②□④④
22
①①②□ |①-②-|
□⑤□③ |③-④-|
⑥□④④ |⑤-⑥-|
□□□□
23
□□③③ |①---|
□□□□ |②-③-|
□□□□ |----|
①①②②
24
□□□□ |①-②-|
□③□□ |③-④-|
□□①① |⑤-⑥-|
②□□□

□□□⑤
□□□□
□□□⑥
□④④□
25
□①①□ |①-②-|
□□⑥□ |③-④-|
□③□⑤ |⑤-⑥-|
②□④④
26
□□④④ |①-②-|
⑤□□② |③-④-|
□⑥③□ |⑤-⑥-|
①①□□
27
③□□③ |①---|
□□□□ |②-③-|
②□□② |----|
□□①①
28
□□④④ |①-②-|
□⑤□③ |③-④-|
⑥□②□ |⑤-⑥-|
①①□□
29
①②③④ |①-②-|
□⑥□□ |③-④-|
□□⑤□ |⑤-⑥-|
□④□①
30
④□□④ |①-②-|
③⑤□□ |③-④-|
②□□⑥ |⑤-⑥-|
①□□①
31
□①④□ |①-②-|
⑥□□③ |③-④-|
⑤□□□ |⑤-⑥-|
④③②①
32
①④④① |①-②-|
□□③□ |③-④-|
□②□□ |----|
□□□□
33
④□□□ |①-②-|
③□⑥□ |③-④-|
②⑤□□ |⑤-⑥-|
①□④①
34
④③②① |①-②-|
□□⑥□ |③-④-|
□⑤□□ |⑤-⑥-|
①□④□
35
□⑥□④ |①-②-|
①□⑤③ |③-④-|
□④□② |⑤-⑥-|
□□□①
36
□⑤□□ |①-②-|
④□□⑥ |③-④-|
⑥③①⑤ |⑤-⑥-|
①②③④
37
⑤⑤□① |①-②③|
□④⑧□ |④-⑤-|
□⑦③□ |⑥⑦⑧-|
①②⑥□
38
□□①① |①-②③|
②⑦□③ |④⑤⑥-|
④□□⑤ |⑦-⑧-|
⑥□□⑧
39
①①⑤⑤ |①-②③|
□⑧④□ |④-⑤-|
□③⑦□ |⑥⑦⑧-|
□⑥②□
40
①①□□ |①-②③|
③□⑦② |④⑤⑥-|
⑤□□④ |⑦-⑧-|
⑧□□⑥
41
□①①□ |①---|
□□③⑤ |②-③-|
②⑤□④ |④-⑤-|
□④□□
42
□□②① |①---|
⑤①□□ |②-③-|
④□⑤□ |④-⑤-|
□③④□
43
①□□③ |①---|
□□①□ |②-③-|
⑤②□⑤ |④-⑤-|
④□□④
44
□①①□ |①---|
□①①□ |--②-|
□□□□ |----|
②②②②
45
①□□① |①---|
□①①□ |--②-|
□□□□ |③-④-|
□□□□

□□□□
④□④□
□③□③
②□②□
46
□①□① |①---|
□②□□ |--②-|
□□□□ |----|
②□②□
47
①□□① |①-②-|
②□□② |③-④-|
□③③□ |--⑤-|
⑤④④⑤
48
③⑥⑥③ |①-②-|
⑤②②⑤ |③-④-|
①□□① |⑤-⑥-|
□④④□
49
□□□□ |----|
□□□□ |----|
□□□□
□□□□
50
⑥□□⑦ |①②-③|
□□④□ |④-⑤-|
⑤③②□ |⑥-⑦-|
□①⑤⑤
51
⑦④⑥□ |①②-③|
□②③□ |④-⑤-|
□□①⑤ |⑥-⑦-|
⑤⑤□□
52
⑤②⑥① |①-②-|
①①□□ |③-④-|
④□③□ |⑤-⑥-|
□□④④
53
□④□□ |①--②|
⑤□③① |③-④-|
□②⑥① |⑤-⑥-|
①①④④
54
□⑥⑤⑤ |①②-③|
□□□④ |④-⑤-|
③⑤□② |⑥-⑦-|
①□⑦□
55
④□□⑥ |①②-③|
②□⑤③ |④-⑤-|
⑦□□① |⑥-⑦-|
⑤⑤□□
56
□①①□ |①-②-|
①②⑤□ |③-④-|
⑥□□③ |⑤-⑥-|
④④□④
57
⑧⑦⑥⑤ |①②-③|
⑨④□□ |④-⑤⑥|
□②③□ |⑦⑧⑨-|
□□①□
58
□⑥□□ |①②-③|
□④②⑦ |④-⑤-|
⑤□□□ |⑥-⑦-|
①⑤⑤③
59
②□⑥④ |①②-③|
⑦⑤⑤□ |④-⑤-|
□③①⑤ |⑥-⑦-|
□□□□
60
①①□□ |①-②-|
□⑤④① |③-④-|
②□□⑥ |⑤-⑥-|
④④□③
61
□□①① |①--②|
①⑤③□ |③-④-|
④②⑥□ |⑤-⑥-|
□□④④
62
①□□① |①---|
①□□① |--②-|
②□□② |----|
□②②□
63
①□□① |①---|
□②□□ |②-③-|
③①①③ |----|
③□□③
64
□②③□ |①-②-|
①□□□ |③-④-|
□□□□ |⑤-⑥-|
□①①□

□□□□
⑥□□④
□④④□
□□□⑤
65
③④④② |①-②-|
□①①⑥ |③-④-|
①□□④ |⑤-⑥-|
⑤□□□
66
□□□□ |----|
□□□□ |----|
□□□□ |----|
□□□□
67
□□□□ |①-②-|
□③□④ |③-④-|
②□□⑤ |⑤-⑥-|
①□⑥□
68
□□□□ |①-②-|
③□④□ |③-④-|
□②⑤□ |⑤-⑥-|
□①□⑥
69
□⑤①□ |①-②-|
□□⑥③ |③-④-|
④②④④ |-⑤⑥-|
①①□□
70
②□④④ |①-②-|
①①□③ |③-④-|
④□⑤□ |⑤-⑥-|
⑥□①□
71
②□□□ |①-②③|
⑥□③⑤ |④-⑤-|
④□⑦⑤ |⑥⑦⑧-|
⑧①①□
72
□①①□ |①-②③|
⑦⑤⑧⑥ |④⑤⑥-|
⑦③⑧④ |⑦-⑧-|
□□□②
73
□□□② |①-②③|
⑤③□□ |④-⑤-|
⑤□□④ |⑥⑦⑧-|
①①①①

□□□□
□□□⑥
□⑦□□
□□□⑧
74
①①①① |①-②③|
⑥⑧⑤⑦ |④⑤⑥-|
④⑧③⑦ |⑦-⑧-|
②□□□
75
②□□□ |①-②③|
□□③⑤ |④-⑤-|
④□□⑤ |⑥⑦⑧-|
①①①①

□□□□
⑥□□□
□□⑦□
⑧□□□
76
①①①① |①-②③|
⑦⑤⑧⑥ |④⑤⑥-|
⑦③⑧④ |⑦-⑧-|
□□□②
77
□□□□ |①---|
□□□□ |----|
□□□□ |----|
①①①①
78
①①①① |①---|
□□□□ |----|
□□□□ |----|
□□□□
最終更新:2023年11月01日 21:57