アットウィキロゴ
BPM:100-155
1
□□□□ |①---|
□①①□ |----|
□①①□ |----|
□□□□ |----|
2
□④②□ |--①②|
③□⑨① |-③④-|
⑧⑩□⑥ |⑤⑥-⑦|
□⑦⑤□ |⑧-⑨⑩|
3
④⑥□□ |①-②-|
□②□⑦ |③-④-|
⑥□□③ |⑤-⑥-|
⑧□⑤① |⑦-⑧-|
4
□⑥□⑦ |①-②-|
⑥□①□ |③-④-|
⑧②⑤□ |⑤-⑥-|
□④□③ |⑦-⑧-|
5
④⑥□□ |①-②-|
□②⑤③ |③-④-|
□⑥□⑦ |⑤-⑥-|
⑧□①□ |⑦-⑧-|
6
□⑥□□ |①-②-|
⑥⑧□③ |③-④-|
②④⑨⑦ |⑤-⑥-|
□□①⑤ |⑦-⑧⑨|
7
□□⑥④ |①-②-|
⑦□②□ |③-④-|
③□□⑥ |⑤-⑥-|
①⑤□⑧ |⑦-⑧-|
8
⑦□⑥□ |①-②-|
□①□⑥ |③-④-|
□⑤②⑧ |⑤-⑥-|
③□④□ |⑦-⑧-|
9
□□⑥④ |①-②-|
③⑤②□ |③-④-|
⑦□⑥□ |⑤-⑥-|
□①□⑧ |⑦-⑧-|
10
⑤□□③ |①-②③|
□④②□ |-④⑤-|
⑪⑧⑥⑩ |⑥⑦-⑧|
⑨①□⑦ |⑨-⑩⑪|
11
□④①□ |①-②-|
④□□① |③-④-|
□□③□ |⑤-⑥-|
□②□□ |⑦-⑧-|

□□⑦□
□□□□
□⑥□⑦
⑧□⑤□
12
□②⑤□ |①-②-|
⑥□□⑤ |③-④-|
②④①□ |⑤-⑥-|
□⑧⑦③ |⑦-⑧-|
13
④□□① |①-②-|
□④①□ |③-④-|
□□□③ |⑤-⑥-|
②□□□ |⑦-⑧-|

□□□⑦
□□□□
⑥□⑦□
⑧□□⑤
14
□③⑤□ |①-②③|
②□①④ |-④⑤-|
⑦□⑪⑨ |⑥⑦-⑧|
⑩⑥⑧□ |⑨-⑩⑪|
15
①①④④ |①-②-|
□□②□ |③-④-|
□③□□ |⑤-⑥-|
□□□□ |⑦-⑧-|

⑦□□□
⑦⑤□⑧
□□⑥□
□□□□
16
□□②□ |①-②-|
□□②□ |③-④-|
③①□□ |⑤-⑥-|
□□④□ |⑦-⑧-|

□□⑧⑧
⑦⑦□□
□□⑥⑥
⑤⑤□□
17
①□□□ |①---|
□□□① |--②-|
①②□② |----|
②□②① |③-④-|

□④④□
④③□④
□□③□
□□□□
18
□□□□ |----|
□□□□ |----|
□□□□ |----|
□□□□ |----|
19
□⑪④□ |①-②-③-④--⑤--|
①⑤⑫⑧ |⑥--⑦--⑧-⑨-⑩-|
②⑬⑥⑨ |⑪⑫⑬⑭|
③⑦⑭⑩ |⑮⑯⑰⑱|

⑮□□⑯
□□□□
⑰□⑱□
□□□□
20
□④④□ |①-②-|
⑤③□⑥ |③-④-|
□⑤□② |--⑤-|
①①⑥□ |--⑥-|
21
□③①□ |--①-|
②□□④ |--②-|
③□□① |--③-|
□②④□ |--④-|
22
□□④④ |①-②-|
□③□□ |③-④-|
□□②□ |--⑤-|
①□□□ |--⑥-|

□□□□
⑤□□□
□⑤⑥⑥
□□□□
23
②□④④ |--①-|
⑤⑤①③ |②-③-|
②□⑥⑥ |④-⑤-|
⑦⑦③① |⑥-⑦-|
24
①④④□ |①-②-|
⑥□①⑤ |③-④-|
③①⑤□ |--⑤-|
□⑥□② |--⑥-|
25
□①③□ |--①-|
④□□② |--②-|
①□□③ |--③-|
□④②□ |--④-|
26
④④□□ |①-②-|
□□③⑤ |③-④-|
□②⑤□ |--⑤-|
⑥⑥□① |--⑥-|
27
③□□⑤ |①-②③|
□②④⑪ |-④⑤-|
⑩⑥⑧① |⑥⑦-⑧|
⑦□□⑨ |⑨-⑩⑪|
28
④①①④ |①-②-|
⑦⑦⑦□ |③-④-|
□③⑥□ |--⑤-|
□⑤②□ |⑥-⑦-|
29
④③③③ |--①-|
④□□① |--②-|
④□□① |--③-|
②②②① |--④-|
30
□③③⑥ |①---|
□□⑥□ |②-③-|
⑤①①⑥ |--④-|
□□④② |⑤-⑥-|
31
①□①□ |--①-|
②①□④ |--②-|
□②③□ |--③-|
②③□③ |--④-|
32
④①①④ |①-②-|
□□□□ |③-④-|
□③□□ |--⑤-|
□□②□ |⑥-⑦-|

□⑦□□
⑦□⑦□
□□⑥□
□⑤□□
33
□□②□ |--①-|
□②④② |--②-|
③①③① |--③-|
□③①□ |--④-|
34
①①④□ |①-②-|
□□□□ |③-④-|
□③□④ |⑤-⑥-|
□□②□ |⑦-⑧-|

□⑧□⑧
□⑦□□
□□⑥□
□⑤□□
35
□□□④ |--①-|
①□①□ |--②-|
□②□② |--③-|
③□□□ |④---|
36
□⑤③□ |①-②③|
④□□② |-④⑤-|
□□□□ |⑥⑦-⑧|
□①□□ |⑨-⑩⑪|

□□□□
□□⑩□
⑨⑪□⑦
□⑧⑥□
37
□□□□ |(100)①---|
□□□□ |----|
□□□□ |----|
□□□① |----|
38
⑧⑨⑩⑪ |①②③④⑤-⑥-|
④③②① |⑦---⑧⑨⑩⑪|
⑫□□⑤ |⑫⑬⑭-|
⑭⑥⑬⑦ |⑮⑯⑰⑱|

□□□□
□⑯⑮□
□⑱⑰□
□□□□
39
⑤□⑥④ |①-②-|
③③④⑥ |③-④-|
②⑧⑦⑦ |⑤-⑥-|
⑧②①① |⑦-⑧-|
40
□□④□ |①-②-|
③②□□ |③-④-|
②□□④ |⑤-⑥-|
□③□① |⑦-⑧-|

⑧□□⑥
□⑧⑥□
□⑤⑦□
⑤□□⑦
41
□□□□ |①-②-|
□④③③ |③-④-|
①□□② |⑤-⑥-|
④□②□ |⑦-⑧-|

□⑥□□
⑥□⑧□
⑦⑦⑤□
□□□⑧
42
②③⑥□ |①-②③|
②⑥□⑤ |④⑤⑥-|
□□□□ |⑦⑧⑨⑩|
④①①□ |⑪-⑫⑬|

□□□⑨
□⑫⑬□
⑧□⑦⑪
□⑦⑩⑪
43
①②□① |----|
□□□□ |①-②-|
□①①② |③-④-|
□□□□ |⑤-⑥-|

□□④□
□⑤□④
⑤□⑥□
③□□⑥
44
④□④□ |①-②-|
□□□□ |③-④-|
□③□③ |⑤-⑥-|
②①②□ |⑦---|

□⑥□⑥
⑦□□⑦
⑤□⑤□
⑦□□⑦
45
②④□③ |①-②-|
④□③□ |③-④-|
□②□□ |⑤-⑥-|
□①①□ |⑦-⑧-|

□□⑥□
□⑤□□
⑦⑧⑧⑥
□⑦□□
46
⑨⑩⑪⑫ |①②③④⑤-⑥-|
④③②① |⑦-⑧-⑨⑩⑪⑫|
⑬⑯⑧⑤ |⑬⑭⑮⑯|
⑮⑥⑭⑦ |⑰⑱⑲⑳|

□⑳⑲□
□⑱⑰□
□□□□
□□□□
47
□□□□ |(155)①---|
□□□□ |----|
①□□① |----|
□□□□ |----|
48
□⑪④□ |①-②-③-④--⑤--|
①⑤⑫⑧ |⑥--⑦--⑧-⑨-⑩-|
②⑬⑥⑨ |⑪⑫⑬⑭|
③⑦⑭⑩ |⑮⑯⑰⑱|

⑮□□⑯
□□□□
⑰□⑱□
□□□□
49
□⑧④□ |①-②-|
⑤①□⑧ |③-④-|
□⑦□③ |⑤-⑥-|
②□⑥□ |⑦-⑧-|
50
②⑦⑥④ |①-②-|
⑥②④□ |③-④-|
□□□□ |⑤-⑥-|
③⑤⑦① |--⑦-|
51
①□②□ |①---|
□②□① |--②-|
①□②□ |--③-|
□②□① |④-⑤-|

□□□□
□□□□
□⑤□□
③□□④
52
□①②□ |①---|
②③③① |--②-|
①③③② |----|
□②①□ |③---|
53
①④⑧① |①-②-|
⑧□□⑤ |③-④-|
③□⑦□ |⑤-⑥-|
□⑥□② |⑦-⑧-|
54
④⑥⑦② |①-②-|
□④②⑥ |③-④-|
□⑦□□ |⑤-⑥-|
①□⑤③ |--⑦-|
55
□②□① |①---|
①□②□ |--②-|
②□①□ |--③-|
□①□② |④-⑤-|

□□□□
□⑤□□
□□④□
③□□□
56
□⑥①① |①②③-|
⑦□□□ |④⑤-⑥|
②□□④ |⑦-⑧⑨|
□③⑤□ |⑩⑪⑫-|

□□□□
□□⑨⑧
□⑪⑩□
□⑫□□
57
①③③① |①---|
③□□③ |②-③-|
①□□① |--④-|
□□②□ |⑤---|

⑤□□⑤
□□□□
□⑤⑤□
④□□□
58
⑤③④⑦ |①-②-|
③□□④ |③-④-|
②⑤⑦□ |⑤-⑥-|
⑧②①⑥ |⑦-⑧-|
59
⑫⑧⑦⑪ |①②③④|
⑥②①⑤ |⑤⑥⑦⑧|
⑩⑭⑬⑨ |⑨⑩⑪⑫|
⑯④③⑮ |⑬⑭⑮⑯|
60
□③⑤□ |①-②③|
②①①④ |-④⑤-|
⑦□⑪⑨ |⑥⑦-⑧|
⑩⑥⑧□ |⑨-⑩⑪|
61
①③③□ |①---|
③①□③ |②-③-|
□□□□ |--④-|
□□□② |⑤---|

⑤□□⑤
□□□□
□⑤⑤□
④□□□
62
④□□② |----|
④①①② |--①-|
□③⑤□ |②-③-|
□③⑤□ |④-⑤-|
63
⑧④③⑦ |①②③④|
⑯⑥⑤⑮ |⑤⑥⑦⑧|
②⑫⑪① |⑨⑩⑪⑫|
⑩⑭⑬⑨ |⑬⑭⑮⑯|
64
③①①⑤ |①-②③|
□②④□ |-④⑤-|
□⑦⑨⑪ |⑥⑦-⑧|
⑥⑩□⑧ |⑨-⑩⑪|
65
①□□③ |①---|
□⑤⑤□ |②-③-|
②□□□ |--④-|
□□□④ |⑤---|
66
□③⑤□ |①-②③|
②□□④ |-④⑤-|
□□□① |⑥⑦-⑧|
□□□□ |⑨-⑩⑪|

□□□□
□□⑪□
⑦⑩□⑨
□⑥⑧□
67
□①③□ |①---|
①⑤⑤③ |②-③-|
②⑤⑤□ |--④-|
□□□④ |⑤---|
68
□③⑥□ |①-②③|
②□□⑤ |④⑤⑥-|
□□□① |⑦⑧⑨⑩|
④□□□ |⑪⑫⑬-|

□□□⑨
□□⑫□
⑧⑬□⑪
□⑦⑩□
69
①①③③ |①---|
①□□③ |②-③-|
②⑤⑤□ |--④-|
□⑤⑤④ |⑤---|
70
②③⑥□ |①-②③|
②⑥□⑤ |④⑤⑥-|
□□□① |⑦⑧⑨⑩|
④□□□ |⑪-⑫⑬|

□□□⑨
□□⑬□
⑧⑫⑦⑪
□⑦⑩⑪
71
①①③③ |①---|
①⑤⑤③ |②-③-|
②⑤⑤□ |--④-|
④⑤⑤④ |⑤---|
72
□□□□ |----|
□□□□ |----|
□□□□ |----|
□□□□ |----|
73
⑧⑨⑩⑪ |①②③④⑤-⑥-|
④③②① |⑦---⑧⑨⑩⑪|
⑫□□⑤ |⑫⑬⑭-|
⑭⑥⑬⑦ |⑮⑯⑰⑱|

□□□□
□⑯⑮□
□⑱⑰□
□□□□
最終更新:2023年11月01日 21:58