アットウィキロゴ
BPM:137
1
□□□② |①-②-|
⑦⑥⑤□ |③-④-|
⑥⑦③□ |⑤--⑥|
①□□④ |--⑦-|
2
②②□□ |--①-|
□⑥③□ |②-③-|
⑤□□③ |④---|
④④□① |⑤-⑥-|
3
②□①□ |①--②|
□□□① |③-④-|
④④□③ |--⑤-|
□□③□ |⑥--⑦|

□⑥⑤□
⑥□□⑤
□□□□
□⑦⑦□
4
②④⑥⑧ |----|
①③⑤⑦ |----|
□□□□ |①②③④|
□□□□ |⑤⑥⑦⑧|
5
□□□□ |①-②-|
②□□□ |③-④-|
□③□□ |⑤--⑥|
④①①□ |--⑦-|

□□⑤⑥
□□⑥⑤
⑦□□□
□⑦□□
6
④①①□ |--①-|
□④③□ |②-③-|
□③□② |④---|
□⑤②⑤ |⑤---|
7
□①□① |①---|
②④②④ |②-③-|
⑤③⑤③ |--④-|
□□□□ |⑤--⑥⑦⑧|

⑧⑦⑥□
□□□□
□□□□
□□□□
8
□□□□ |①---|
□□□□ |----|
□□□□ |--②-|
□□□① |③-④-|

□□□□
□②□□
□□③□
□□□④
9
⑧⑧⑧⑤ |①-②-|
④④③① |③-④-|
⑥⑥⑦④ |⑤-⑥⑦|
②②②□ |--⑧-|
10
⑧⑧⑦⑦ |--①-|
④④②③ |②③④⑤|
⑥⑥□□ |--⑥-|
①①⑤① |⑦-⑧-|
11
□□⑤④ |①-②-|
④④□□ |③-④⑤|
□□①□ |--⑥-|
②②③① |⑦-⑧-|

□□□□
□□⑦□
⑥⑥⑦□
⑧□□⑥
12
□③④□ |①②③④|
①⑪□② |⑤⑥⑦⑧|
□⑤⑩⑥ |⑨-⑩⑪-⑫|
⑨⑦⑧⑫ |⑬-⑭⑮-⑯|

⑮⑮□⑯
□□⑭□
⑬□□□
□□□□
13
□□□□ |--①-|
④④□⑤ |②③④⑤|
□□③② |--⑥-|
①①□⑤ |⑦-⑧-|

⑧⑧⑧⑥
□□⑥□
⑥⑥□⑧
□□⑦□
14
□□□③ |①-②-|
④④□③ |③-④-|
□□①□ |⑤-⑥⑦|
②②□□ |--⑧-|

⑧⑧⑧⑧
□□⑦□
⑥⑥□⑤
□□⑤⑦
15
□□□□ |①-②-|
⑤⑤⑥① |③④⑤⑥|
□□②③ |--⑦-|
②②□④ |⑧-⑨-|

⑨⑨□⑦
□□□⑨
⑦⑦□□
□□⑧□
16
⑦□①□ |--①-|
④④⑤□ |②③④⑤|
⑥⑥□② |--⑥-|
①①□③ |--⑦-|
17
⑧⑧□⑥ |--①-|
④④⑤⑧ |②③④⑤|
⑥⑥①② |--⑥-|
①①⑦③ |⑦-⑧-|
18
⑤□□③ |--①-|
②①①□ |②③-④|
□④④③ |⑤---|
②④④⑥ |⑥---|
19
④②⑤□ |①--②|
②①③□ |③④-⑤|
④③⑤□ |--⑥-|
□□□□ |⑦-⑧⑨|

□⑨□□
⑨⑦⑨□
□□□□
⑥□□⑧
20
□⑦□⑤ |--①-|
□④⑥① |②-③-|
□⑦②⑤ |④-⑤-|
□③⑥□ |⑥-⑦-|
21
□□①□ |①--②|
□②⑤① |③④-⑤|
□□③□ |--⑥-|
②④□⑤ |⑦-⑧-|

⑥□⑦□
□⑧□□
□⑥□⑦
⑧□□□
22
□□□□ |①---|
□□□① |----|
□□□□ |--②-|
□□①□ |--③-|

②②□□
②②□③
□□②□
□□□②
23
□□□③ |①-②③|
④□③□ |--④-|
□②□③ |⑤-⑥⑦|
□□①□ |--⑧-|

⑦⑧⑧□
□⑦□□
⑦□⑥□
□⑤□□
24
⑦□□□ |①②-③|
④⑦②⑧ |--④-|
⑦②⑥① |⑤-⑥⑦|
□⑤①③ |--⑧-|
25
□□□③ |①-②③|
④□③□ |--④-|
□②□③ |⑤-⑥⑦|
□□①□ |--⑧-|

⑦□□⑧
□⑦⑧⑧
⑦□⑥⑧
□⑤□□
26
⑪②①⑩ |--①-|
⑦□⑧□ |②---③④⑤⑥|
⑪⑨□□ |⑦-⑧⑨|
③④⑤⑥ |-⑩⑪-|
27
⑥④□⑤ |--①-|
④⑥⑤① |②-③-|
⑥□②① |④--⑤|
③③②□ |--⑥-|
28
□□①□ |--①-|
②□□③ |②-③-|
□①④□ |④---|
③□④② |⑤-⑥-|

⑥□□□
□⑥□□
⑥⑤□□
□⑥□□
29
⑥①⑤④ |--①-|
⑥⑥④⑤ |②-③-|
⑥④③□ |④--⑤|
④⑥□② |--⑥-|
30
⑤①④④ |--①-|
⑤⑤③④ |②-③-|
⑤⑤□□ |④---|
④⑤□② |--⑤-|
31
□□□③ |--①-|
□□□□ |②-③-|
□□□□ |④--⑤|
②□□① |--⑥-|

⑥④⑤□
⑥⑥④□
⑥⑥⑤□
⑥⑥□□
32
□①□□ |--①-|
□□③□ |②-③-|
□□□□ |④--⑤|
□□□② |--⑥-|

⑥⑥⑤□
⑥⑥□⑤
⑥⑥□④
⑥⑥④□
33
□⑦□① |--①-|
⑦⑥②⑥ |②-③-|
⑤□⑤③ |④-⑤-|
□④④□ |⑥-⑦-|
34
④□□① |①---|
□□①□ |--②-|
④②③□ |③---|
②②③③ |--④-|
35
⑥④□⑤ |--①-|
④⑥⑤① |②-③-|
⑥□②① |④--⑤|
③③②□ |--⑥-|
36
□□①□ |--①-|
②□□③ |②-③-|
□①④□ |④---|
③□④② |⑤-⑥-|

⑥□□□
□⑥□□
⑥⑤□□
□⑥□□
37
⑥①⑤④ |--①-|
⑥⑥④⑤ |②-③-|
⑥④③□ |④--⑤|
④⑥□② |--⑥-|
38
⑤①④④ |--①-|
⑤⑤③④ |②-③-|
⑤⑤□□ |④---|
④⑤□② |--⑤-|
39
□⑥④③ |--①-|
⑥□⑦④ |②-③-|
⑤⑦□□ |④-⑤-|
②⑤□① |⑥-⑦-|
40
□□□□ |①---|
□②⑥□ |②---|
□⑤②① |③-④-|
③④①□ |⑤-⑥-|
41
②③④① |①-②-|
⑦⑦⑥□ |③-④-|
□□□□ |⑤-⑥--⑦|
□⑤□□ |--⑧-|

□⑧□⑧
□□□□
□□□□
□□□□
42
②④②□ |①---|
□□⑤□ |--②-|
□⑥□□ |③---|
①③①③ |④-⑤-⑥-|
43
②□②□ |①---|
□③□③ |②---|
④□④□ |③---|
□□①□ |④---|
44
□□□□ |①---|
□②③□ |--②-|
□□□□ |③---|
□①□① |----|
45
□□□□ |----|
□①□□ |①---|
□②②□ |②---|
□③③□ |③---|
46
④①□□ |①---|
①③②⑥ |②-③-|
□③②□ |--④-|
□⑤□□ |⑤-⑥-|
47
⑦⑧⑧③ |①-②③|
④⑦③□ |--④-|
⑦②⑥③ |⑤-⑥⑦|
□⑤①□ |--⑧-|
48
⑦□□□ |①②-③|
④⑦②⑧ |--④-|
⑦②⑥① |⑤-⑥⑦|
□⑤①③ |--⑧-|
49
□□□③ |①-②③|
④□③□ |--④-|
□②□③ |⑤-⑥⑦|
□□①□ |--⑧-|

⑦□□□
□⑦⑧⑧
⑦□⑥□
□⑤□⑧
50
④①⑤⑤ |①-②-|
①⑥⑤⑧ |③-④-|
⑦□⑥③ |⑤-⑥-|
⑦⑦②⑥ |⑦-⑧-|
51
⑦⑧⑧③ |①-②③|
④⑦③□ |--④-|
⑦②⑥③ |⑤-⑥⑦|
□⑤①□ |--⑧-|
52
⑦□□□ |①②-③|
④⑦②⑧ |--④-|
⑦②⑥① |⑤-⑥⑦|
□⑤①③ |--⑧-|
53
□□□③ |①-②③|
④□③□ |--④-|
□②□③ |⑤-⑥⑦|
□□①□ |--⑧-|

⑦□□⑧
□⑦⑧⑧
⑦□⑥⑧
□⑤□□
54
□□①□ |①-②-|
②□□□ |③-④-|
□□□□ |⑤⑥⑦⑧⑨⑩⑪⑫|
④□□③ |⑬⑭⑮⑯⑰---|

⑰⑤⑨⑬
□⑥⑩⑭
⑰⑦⑪⑮
□⑧⑫⑯
55
□④②□ |--①-|
□①□⑤ |②-③-|
⑥□□□ |④--⑤|
③⑥⑥□ |--⑥-|
56
□□□□ |--①-|
③□①③ |②-③-|
□①①□ |④-⑤-|
□□□② |⑥-⑦-|

⑦⑤⑤□
□⑦□□
⑦⑥□④
□⑦④□
57
□□□□ |--①-|
①□□□ |②-③-|
□□③□ |④--⑤|
□□□② |--⑥-|

⑥□⑤④
⑥⑥④⑤
⑥④□□
④⑥□□
58
⑤①④④ |--①-|
⑤⑤③④ |②-③-|
⑤⑤□□ |④---|
④⑤□② |--⑤-|
59
□□□③ |--①-|
□□□□ |②-③-|
□□□□ |④--⑤|
②□□① |--⑥-|

⑥④⑤□
⑥⑥④□
⑥⑥⑤□
⑥⑥□□
60
□①□□ |--①-|
□□③□ |②-③-|
□□□④ |④---|
□□④② |⑤-⑥-|

⑥⑥⑤□
⑥⑥□□
⑥⑥⑤□
⑥⑥□□
61
□⑦□① |--①-|
⑦⑥②⑥ |②-③-|
⑤□⑤③ |④-⑤-|
□④④□ |⑥-⑦-|
62
④□□① |①---|
④□①□ |--②-|
④②③□ |③---|
②②③③ |--④-|
63
⑦①①⑥ |----|
□⑦⑤④ |①-②-|
⑦③③□ |③-④⑤|
②□⑦② |⑥-⑦-|
64
□□②□ |①-②-|
③□□④ |③-④-|
□②□① |⑤-⑥-|
④□□③ |⑦-⑧-|

⑧□□⑥
□⑧⑦□
⑧⑦⑤□
□⑧⑤□
65
□②①□ |①-②-|
□□□□ |③-④-|
□□④② |⑤-⑥⑦|
□□□③ |⑧-⑨-|

⑨□⑦⑤
⑨⑨⑤⑧
⑨⑤□□
⑤⑨⑥□
66
□②□□ |①-②-|
□□④□ |③-④-|
□□②① |⑤-⑥-|
□□□③ |⑦-⑧-|

⑧□⑤⑤
⑧⑧□⑤
⑧⑧□⑦
⑤⑧⑥□
67
□⑥④③ |--①-|
⑥□⑦④ |②-③-|
⑤⑦□□ |④-⑤-|
②⑤□① |⑥-⑦-|
68
③④④⑤ |①---|
□②⑥□ |②-③-|
□⑥②① |④-⑤-|
⑦⑦①□ |⑥-⑦-|
69
②③④□ |①-②-|
⑦⑦⑥□ |③-④-|
□□□□ |⑤-⑥--⑦|
□⑤①① |--⑧-|

□⑧□⑧
□□□□
□□□□
□□□□
70
②□②□ |①---|
④④④□ |--②-|
□④④④ |③---|
①③①③ |④---|
最終更新:2023年11月01日 21:58