アットウィキロゴ
BPM:130
1
③□⑥□ |①-②③|
②□⑤⑨ |④-⑤⑥|
⑧□①④ |-⑦⑧-|
⑦①□① |⑨---|
2
③□⑥□ |①-②③|
②□⑤□ |④-⑤⑥|
□□①④ |⑦⑧⑨⑩|
□①□① |--⑪-|

□⑪□⑪
□□□□
□⑦⑧□
□⑨⑩□
3
③□□□ |①---|
□□□② |②--③|
□□□□ |-④⑤-|
①□②□ |⑥---|

□□□⑥
□□□□
⑤□⑥□
④□□□
4
①□□□ |①---|
□□□② |②--③|
□□□□ |--④-|
③□②□ |⑤-⑥-|

□⑤□⑤
□□□⑥
④□□□
□□□□
5
③⑪⑥⑪ |①-②③|
②①⑤⑫ |④-⑤⑥|
□⑦⑧④ |⑦⑧⑨⑩|
①⑨⑩① |⑪-⑫-|
6
③⑪⑥⑪ |①-②③|
②①⑤⑫ |④-⑤⑥|
□⑦⑧④ |⑦⑧⑨⑩|
①⑨⑩① |⑪-⑫-|
7
③□③④ |①-②③|
⑤①⑤⑥ |-④⑤-|
⑦□⑦② |⑥⑦-⑧|
①□□① |⑨-⑩⑪|

□⑨⑨□
□□□□
□□□⑧
□⑩⑪□
8
③□⑥□ |①-②③|
②①⑤□ |④-⑤⑥|
□⑦⑧④ |⑦⑧⑨-|
①⑨□① |⑩-⑪⑫|

⑩⑫□□
□□□□
□□□□
□□⑪□
9
③□□① |①--②|
□①③□ |--③-|
④□□② |-④--|
□②④□ |⑤⑥⑦⑧|

□□□⑥
□□□⑧
□□□⑤
□□□⑦
10
③②⑥⑤ |①②③-|
□□⑧⑦ |④-⑤⑥|
□①①⑨ |⑦⑧⑨-|
□④④□ |⑩-⑪-|

□⑩□□
⑩□□□
□□⑪□
□□□⑪
11
②□□① |①②③④|
□④③□ |⑤⑥⑦-|
⑥□□⑤ |⑧⑨⑩⑪|
□□⑦□ |⑫---|

□⑨⑩⑫
⑧□⑫⑪
□⑫□□
⑫□□□
12
□□□□ |①②③-|
③□□□ |④-⑤⑥|
②□①□ |⑦⑧⑨-|
□①□① |⑩⑪⑫-|

④⑩④□
⑩⑥⑩⑤
⑫⑧□⑦
⑪□□⑨
13
②□①④ |①-②③|
□①□① |-④⑤-|
□⑤③□ |⑥⑦⑧-|
⑤③⑤③ |-⑨⑩-|

⑨⑥□⑩
⑥□⑥⑧
□□□⑦
□□□□
14
□□①□ |①②③-|
④④②⑥ |④-⑤⑥|
□□□⑤ |--⑦⑧|
□③□□ |⑨-⑩-|

□□⑦□
⑩⑩⑧□
□□□□
□⑨□□
15
⑥□⑩② |①②③④|
⑧□⑪④ |⑤⑥⑦⑧|
⑤□□① |⑨---|
⑦⑫⑨③ |⑩⑪⑫-|
16
⑥□⑦□ |①-②③|
①①□③ |④⑤⑥⑦|
□□□② |⑧⑨⑩-|
④□⑤□ |⑪⑫⑬-|

□□□□
□⑩⑪□
□⑫⑨□
□⑧⑬□
17
①⑤②④ |①--②|
□⑦□⑥ |③-④⑤|
①□②⑧ |⑥⑦⑧-|
□③□□ |⑨⑩⑪⑫|

⑩□□□
⑫□□□
⑨□□□
⑪□□□
18
□②□□ |①-②-|
□□□② |③-④⑤|
□□①□ |⑥⑦⑧⑨|
□①③① |⑩---|

④□⑤□
⑥□⑦□
⑧□⑨□
⑩□□□
19
⑨□②⑨ |①-②③|
②⑤⑤⑥ |④-⑤-|
□③⑦□ |⑥⑦⑧-|
□⑧④① |⑨---|
20
□②③□ |①-②③|
⑫⑥⑦② |④⑤⑥⑦|
⑩④⑤⑪ |⑧⑨⑩⑪|
①⑧⑨① |---⑫|
21
□③□□ |①②③-|
□①②③ |④-⑤-|
④□□⑤ |⑥-⑦⑧|
□④⑤□ |-⑨⑩⑪|

⑦⑨□⑧
□□⑩□
□⑥⑥□
□⑪□□
22
□⑥⑤□ |-①②③|
□□□□ |④-⑤⑥|
④③②① |-⑦⑧⑨|
□□□□ |⑩⑪⑫-|

□□□□
□□⑧⑦
□□⑩⑨
□□⑫⑪
23
④①③⑤ |--①-|
□⑧□① |②-③-|
⑥□⑨⑦ |④⑤⑥⑦|
②⑩□□ |⑧⑨⑩-|
24
□□②③ |①-②-|
②□□⑥ |③④⑤⑥|
□④□⑤ |-⑦⑧⑨|
④□①□ |⑩-⑪⑫|

⑪□□⑫
□⑦□□
⑦□□□
□⑩⑨⑧
25
□①□⑥ |--①-|
③⑦⑩① |②-③④|
□□④⑧ |⑤-⑥⑦|
⑤⑨②② |⑧-⑨⑩|
26
①□③④ |①-②-|
⑤□□② |③④-⑤|
①□③④ |-⑥⑦-|
⑤□□② |⑧-⑨-|

⑦⑥□⑨
□□⑧□
⑦⑥□⑨
□□⑧□
27
②□③□ |①--②|
②③□③ |--③-|
④□①□ |-④--|
④①□① |⑤-⑥-|

□□□□
□□⑥□
□⑥⑤⑥
□⑤□⑤
28
②□①□ |①--②|
②①□① |--③-|
④□③□ |-④--|
④③□③ |⑤⑥⑦-|

□□□⑦
□□⑤⑥
□⑤□⑤
□□□□
29
②□□□ |①--②|
②□□□ |--③-|
□③①□ |-④--|
③①③① |⑤⑥⑦-|

□⑤□□
⑤④⑤□
④□④⑥
□□□⑦
30
④□②□ |①-②-|
□②□② |③④-⑤|
③①⑤□ |-⑥⑦-|
①⑤①⑤ |⑧⑨⑩-|

□⑥□⑩
⑥□⑥⑨
□⑧□⑦
⑧□⑧□
31
①□②□ |①---|
③□③□ |②---|
①□②□ |③---|
□③□③ |----|
32
③①③① |①-②-|
⑥⑦④⑥ |③-④⑤|
⑥⑤□⑥ |--⑥-|
②□②□ |--⑦-|
33
□②□① |①---|
③□□③ |②---|
②□①□ |③---|
③□□③ |----|
34
①③①③ |①-②-|
□④□□ |③-④⑤|
□□⑤□ |--⑥-|
□②□② |⑦---|

□□□□
⑥□⑥□
□⑥□⑥
⑦□□⑦
35
①□②□ |①---|
③□③□ |②---|
①□②□ |③---|
□③□③ |--④-|

□□□□
□□□□
□□④□
□□□□
36
③①③① |①-②-|
⑥□④⑥ |③-④⑤|
⑥⑤□⑥ |--⑥-|
②□②□ |----|
37
④②□① |①---|
③□□③ |②---|
②□①□ |③---|
③□□③ |--④-|
38
□④④□ |①--②|
④②②③ |--③-|
②③③① |-④--|
□①①□ |⑤⑥⑦⑧|

□□□⑥
□□□⑧
□□□⑤
□□□⑦
39
①□②□ |①---|
③□③□ |②---|
①□②□ |③---|
□③□③ |----|
40
③①③① |①-②-|
⑥⑦④⑥ |③-④⑤|
⑥⑤□⑥ |--⑥-|
②□②□ |--⑦-|
41
②③□□ |①-②③|
④□□□ |④-⑤⑥|
□□①□ |⑦⑧⑨⑩|
□①□① |⑪-⑫-|

⑫□⑫□
□□⑥⑤
□□⑧⑦
□⑪⑩⑨
42
□□□□ |-①②③|
④③②① |④-⑤-|
□□□□ |⑥⑦⑧⑨|
⑤□□⑤ |⑩-⑪-|

□⑪□⑪
□⑩□□
□⑧⑨□
□⑥⑦□
43
①□②□ |①---|
③□③□ |②---|
①□②□ |③---|
□③□③ |----|
44
③①③① |①-②-|
⑥⑦④⑥ |③-④⑤|
⑥⑤□⑥ |--⑥-|
②□②□ |--⑦-|
45
□②□① |①---|
③□□③ |②---|
②□①□ |③---|
③□□③ |----|
46
□④④⑤ |①--②|
④②②③ |--③-|
②③③① |-④--|
⑤①①□ |⑤---|
47
③□□□ |①-②③|
②①□① |④-⑤⑥|
□①①① |-⑦⑧-|
□①④① |⑨---|

□□⑥□
□□⑤⑨
⑧□□□
⑦□□□
48
③□□□ |①-②③|
②□□□ |④-⑤⑥|
□□①④ |⑦⑧⑨⑩|
□①□① |--⑪-|

□⑪⑥⑪
□□⑤□
□⑦⑧□
□⑨⑩□
49
①□□□ |①---|
□②□② |②--③|
□□□□ |--④-|
③□□□ |⑤-⑥-|

□⑤□⑤
□□□⑥
④□□□
□□□□
50
②⑦②⑦ |①-②-|
①⑤□⑤ |③④-⑤|
④□⑧□ |--⑥-|
③⑥□□ |⑦-⑧-|
51
③⑪⑥⑪ |①-②③|
②①⑤⑫ |④-⑤⑥|
□⑦⑧④ |⑦⑧⑨⑩|
①⑨⑩① |⑪-⑫-|
52
③⑪⑥⑪ |①-②③|
②①⑤⑫ |④-⑤⑥|
□⑦⑧④ |⑦⑧⑨⑩|
①⑨⑩① |⑪-⑫-|
53
③□③④ |①-②③|
⑤①⑤⑥ |-④⑤-|
⑦□⑦② |⑥⑦-⑧|
①□□① |⑨-⑩⑪|

□⑨⑨□
□□□□
□□□⑧
□⑩⑪□
54
③□⑥□ |①-②③|
②①⑤□ |④-⑤⑥|
□⑦⑧④ |⑦⑧⑨-|
①⑨□① |⑩-⑪⑫|

⑩⑫□□
□□□□
□□□□
□□⑪□
55
③□□① |①--②|
□①③□ |--③-|
④□□② |-④--|
□②④□ |⑤⑥⑦⑧|

□□□⑥
□□□⑧
□□□⑤
□□□⑦
56
□□□□ |①---|
□①①□ |----|
□①①□ |----|
□□□□ |---ー|
最終更新:2023年11月01日 21:58