アットウィキロゴ

BPM:152
1
③⑥>① |①-②-|
⑤②□∨ |③-④-|
①④□④ |⑤-⑥-|
□□□□ |⑦-⑧-|

□□□□
□□□□
⑦□□□
□⑧⑦<

□□□3
□□□□
□□□6
□□□□
2
①④⑥□ |①-②-|
③②②⑤ |③-④-|
□□∧□ |⑤-⑥-|
⑦⑧□□ |⑦-⑧-|

□□□□
□□7□
□□□□
□□1□
3
③⑥>① |①-②-|
⑤②□∨ |③-④-|
①④□④ |⑤-⑥-|
□□□□ |⑦-⑧-|

□□□□
□□□□
⑦□□□
□⑧⑦<

□□□3
□□□□
□□□6
□□□□
4
①④⑥□ |①-②-|
③②□⑤ |③-④-|
⑦⑧⑨⑩ |⑤-⑥-|
□□□□ |⑦⑧⑨⑩|

□□□□
□□□□
□□□□
□□3□
5
□□□③ |①-②-|
①④③⑦ |③---|
□⑤□□ |④-⑤-|
①⑥②⑦ |⑥-⑦-|
6
②□□□ |--①-|
□②③□ |②---|
□④⑤③ |③---|
①□□□ |④-⑤-|
7
□□□③ |①-②-|
①④③□ |③---|
□⑥□⑤ |④-⑤-|
①□②□ |⑥-⑦-|

∨∨□□
□□□□
□□□□
⑦⑦⑦⑦
8
□□□□ |----|
②□□③ |①---|
⑦⑥□□ |②-③-|
□□⑤④ |④⑤⑥⑦|

□□□□
□□□□
□□□□
11□□
9
□□②① |①---|
②①□□ |②---|
□□①② |③-④-|
①②□□ |⑤-⑥-|

□□□□
□□③□
□④□□
⑥□⑤□
10
□⑤⑤□ |--①-|
∨□□② |②-③-|
③□①□ |--④-|
□④④□ |--⑤-|

□□□□
□□□□
4□□□
□□□□
11
②□□① |①---|
□②①□ |②---|
□①②□ |③-④-|
①□□② |--⑤-|

□□□□
□□□③
④□□□
⑤□⑤□
12
□□□□ |--①-|
□□□□ |--②-|
□①□① |----|
□□□□ |③---|

>□②□
□②□<
>□②□
□②□<

□□3□
□3□□
□□3□
□3□□
13
①②□□ |①---|
□□①② |②---|
②①□□ |③-④-|
□□②① |⑤-⑥-|

□□□□
□③□□
□□④□
□⑤□⑥
14
□⑤⑤□ |--①-|
②□□∨ |②-③-|
□①□③ |--④-|
□④④□ |--⑤-|

□□□□
□□□□
□□□4
□□□□
15
③□□① |①---|
∧①③∧ |②-③-|
⑥③①⑤ |--④-|
□⑥⑤□ |⑤-⑥-|

4□□2
□□□□
□□□□
□□□□
16
②□□④ |----|
□③①□ |①-②-|
□③①□ |③-④-|
□□□□ |----|
17
□①③□ |①-②-|
③□□① |--③-|
②④②④ |④---|
□□□□ |⑤-⑥-|

⑤□□⑤
□⑥⑥□
□□□□
□∧∧□
18
□①②□ |----|
□□□□ |①---|
□□□□ |②---|
⑥⑤④③ |③④⑤⑥|

□□□□
□11□
□□□□
□□□□
19
□③④① |①-②-|
②③④⑤ |③-④-|
②⑥⑥⑤ |⑤-⑥-|
⑦□□⑧ |⑦-⑧-|
20
□□④② |--①-|
□⑤□□ |--②-|
③□□□ |--③-|
□①①□ |④-⑤-|
21
□□□□ |--①-|
□□□□ |②-③-|
□②①□ |④-⑤-|
③①②③ |⑥-⑦-|

⑤⑥⑤⑥
④⑦④⑦
□□□□
□∧□∧
22
□□□□ |----|
④□②□ |----|
□②□□ |①-②-|
②□③□ |③-④-|

□□□□
□1□1
□□□□
□□□□
23
②□□① |--①-|
□⑤□□ |②-③-|
③□⑤④ |④-⑤-|
□□□⑥ |--⑥-|
24
□□□⑦ |①-②-|
②⑥④③ |③-④-|
□④□⑤ |--⑤-|
①□□□ |⑥-⑦-|
25
⑥□□⑤ |--①-|
①④④① |--②-|
⑥①①⑤ |③-④-|
③□□② |⑤-⑥-|
26
∨②②∨ |--①-|
□□□□ |②-③-|
□①①□ |----|
③□□③ |④---|

□□□□
□□□□
□□□□
4□□4
27
□□②□ |①---|
②□□① |②---|
□①□□ |③-④-|
□□□□ |⑤-⑥-|

③□□⑥
□⑤□⑥
□□④□
□□□□
28
□□③□ |--①-|
□⑤④□ |②---|
①①□□ |--③-|
②②□□ |④-⑤-|
29
□①④□ |①---|
□④□② |②-③-|
①③③□ |--④-|
□□②□ |⑤---|

□⑤□⑤
⑤□⑤□
□∧□∧
∧□∧□
30
□□□□ |----|
□④□□ |----|
□③□□ |①-②-|
②□□□ |③-④-|

□1□1
1□1□
□□□□
□□□□
31
□□①□ |①---|
③□⑥② |②-③-|
③□⑤② |--④-|
□□□④ |⑤-⑥-|
32
⑥①□□ |①---|
②⑥□③ |②-③-|
②④⑤③ |--④-|
④□□⑤ |⑤-⑥-|
33
□②②① |①---|
□□①□ |②-③-|
□□□□ |----|
□③③□ |④-⑤-|

④□□④
⑤><⑤
⑤><⑤
□□□□
34
□□□□ |----|
1□□1 |----|
1□□1 |①---|
□□□□ |----|
35
□□②① |①---|
②①□□ |②---|
□□①② |③-④-|
①②□□ |⑤-⑥-|

□□□□
□□③□
□④□□
⑥□⑤□
36
□⑤⑤□ |--①-|
□□□② |②-③-|
③□①□ |--④-|
□④④□ |--⑤-|
37
②□□① |①---|
□②①□ |②---|
□①②□ |③-④-|
①□□② |--⑤-|

□□□□
□□□③
④□□□
⑤□⑤□
38
□□□□ |--①-|
□□□□ |--②-|
□①□① |----|
□□□□ |③---|

>□②□
□②□<
>□②□
□②□<

□□3□
□3□□
□□3□
□3□□
39
①②□□ |①---|
□□①② |②---|
②①□□ |③-④-|
□□②① |⑤-⑥-|

□□□□
□③□□
□□④□
□⑤□⑥
40
□⑤⑤□ |--①-|
②□□□ |②-③-|
□①□③ |--④-|
□④④□ |--⑤-|
41
③□□① |①---|
∧①③∧ |②-③-|
⑥③①⑤ |--④-|
□⑥⑤□ |⑤-⑥-|

4□□2
□□□□
□□□□
□□□□
42
②□□④ |----|
□③①□ |①-②-|
□③①□ |③-④-|
□□□□ |----|
43
□③④□ |①-②-|
③⑤⑦④ |③-④-|
②⑦⑥① |⑤-⑥-|
□②①⑤ |--⑦-|
44
②□□① |--①-|
②③□① |--②-|
①□③② |--③-|
①④④② |--④-|
45
□④□③ |--①-|
①⑤□□ |②-③-|
□②□□ |④-⑤-|
□□□□ |--⑥-|

□□□□
⑥□⑥⑥
□□□□
□□□□
46
□□□□ |--①-|
□□□□ |--②-|
①①□① |----|
□□□□ |③---|

∨∨∨∨
□□□□
□□□□
②②②②

□□□□
□□□□
□□□□
3333
47
□③□① |①-②-|
⑤□□□ |③-④-|
□②⑥④ |--⑤-|
⑦□□□ |⑥-⑦-|
48
④□④□ |--①-|
□④□③ |②-③-|
□②□□ |--④-|
□□□① |----|
49
②□□② |①---|
□□□□ |--②-|
②①①② |----|
□①①□ |③-④-|

□□④□
□□□④
□□□□
③④□③
50
□①□□ |----|
①□□□ |①---|
②□□② |②---|
□□①□ |③-④-|

>□④④
□□□□
□③□∧
□□□□
51
□□□□ |①-②-|
①②□□ |--③-|
③④□□ |④---|
⑤⑥□□ |⑤-⑥-|

□□66
□□□□
□□□□
□□□□
52
□□□□ |--①-|
□①□② |②---|
□③③□ |③---|
□□④□ |④-⑤-|

□□□□
∨□□□
□□□□
⑤⑤□<
53
□□□□ |①-②-|
□□②① |--③-|
□□④③ |④---|
□□⑥⑤ |⑤-⑥-|

□□□□
□□□□
□□□□
66□□
54
□□□□ |①-②-|
②□□① |③-④-|
④⑤⑥③ |⑤---|
⑥□□⑤ |⑥---|
55
>□①① |①-②-|
①②□□ |--③-|
③④□∧ |④---|
⑤⑥□□ |⑤-⑥-|

□□66
□□□□
□□□□
□□□□
56
□□□□ |--①-|
□①□② |②---|
□③③□ |③---|
⑤⑤④□ |④-⑤-|
57
□⑥③⑤ |①-②-|
③②②① |③---|
④⑥③⑤ |④-⑤-|
□□□④ |⑥-⑦-|

□□□□
>□⑦□
□□□□
>□⑦□
58
□□□□ |----|
□□□□ |----|
□□□□ |----|
□□□□ |----|
59
□□□□ |①---|
□□1□ |----|
□□□□ |----|
□□1□ |----|
最終更新:2024年09月14日 15:00