アットウィキロゴ
New Decade [2] / Sota F.
BPM:200
Notes:854

1
⑧□②⑧ |①-②-|
□□□⑤ |③-④-|
④⑦□□ |⑤-⑥-|
①③⑥□ |⑦-⑧-|

2
④②③□ |--①-|
□□①□ |--②-|
□□□④ |--③-|
①③□② |--④-|

3
□□□① |--①-|
□③□④ |②-③-|
②□□⑥ |④-⑤-|
⑥□⑤□ |--⑥-|

4
□□□□ |--①-|
□③④② |--②-|
①□③□ |--③-|
④②□① |--④-|

5
⑧②□⑧ |①-②-|
⑤□□□ |③-④-|
□□⑦④ |⑤-⑥-|
□⑥③① |⑦-⑧-|

6
□③②④ |--①-|
□①□□ |--②-|
④□□□ |--③-|
②□③① |--④-|

7
①―<□ |①---|
①―<□ |②③④⑤|
□□□□ |⑥⑦⑧⑨|
□□□□ |--⑩-|

②□∨□
②□②□
□□□∨
□□□②

□□□□
□□③□
>④□□
④<□③

□□□∨
□□□⑥
□⑤∨□
⑤□⑥□

□□□□
>⑧□⑦
□□□□
>⑧⑦□

□⑩□⑩
□⑨□□
⑩□□□
□⑨□□

8
③□①□ |--①-|
①□□③ |--②-|
□②□① |--③-|
②□③② |----|

9
⑨①⑥□ |①②③-|
⑦□②⑩ |④⑤-⑥|
③⑪□⑤ |⑦-⑧-|
⑧④□□ |⑨⑩⑪-|

10
⑨①⑥⑩ |①②③-|
⑦□②□ |④⑤-⑥|
③□⑪⑤ |⑦-⑧-|
⑧④□□ |⑨⑩-⑪|

11
□□⑪⑩ |①-②③|
□④③② |④-⑤-|
⑥①□⑤ |⑥-⑦⑧|
□⑨⑧⑦ |⑨-⑩⑪|

12
□①⑨⑧ |①-②③|
⑤⑦⑥④ |-④⑤-|
□③②□ |⑥-⑦-|
⑦□□⑥ |⑧⑨⑩⑪|

⑪⑩□□
□□□□
□□□□
□□□□

13
□⑩□□ |①②③-|
⑤□⑧⑨ |④⑤-⑥|
⑪②①④ |⑦-⑧-|
□⑥③⑦ |⑨⑩-⑪|

14
⑤□□④ |①-②③|
⑪⑥⑧□ |④⑤-⑥|
□③②⑨ |⑦-⑧-|
□⑩①⑦ |⑨⑩-⑪|

15
□□①□ |①②③④|
□□∧① |⑤⑥⑦⑧|
□□□∧ |⑨⑩⑪⑫|
□□□□ |⑬⑭⑮⑯|

□③②□
□∧□②
③□□□
∧□□□

□④□⑤
□□□∧
④□⑤□
□□∧□

⑦□□⑥
∧□□□
□⑦⑥□
□∧□□

⑧□∨□
□□⑨□
□⑧□∨
□□□⑨

□∨□□
□⑪⑩□
∨□□□
⑪□□⑩

□□□□
□⑫□∨
□□∨⑬
⑫□⑬□

∨□□□
⑮□□□
□∨□⑭
□⑮⑭□

□□□□
⑯□□□
□□□□
□⑯□□

16
⑧④③⑦ |①②③④|
⑯⑫⑪① |⑤⑥⑦⑧|
②⑥⑤⑮ |⑨⑩⑪⑫|
⑩⑭⑬⑨ |⑬⑭⑮⑯|

17
⑥④①⑦ |①②③-|
□⑧⑨③ |④-⑤⑥|
②④⑤□ |⑦-⑧-|
⑧⑩⑪□ |⑨⑩⑪-|

18
□⑦④⑧ |①②③-|
①⑨⑩② |④-⑤⑥|
⑤③⑧④ |⑦-⑧-|
□⑪□⑥ |⑨⑩⑪-|

19
④⑩⑨□ |①②③-|
②⑧⑪① |④-⑤⑥|
⑥④⑦③ |⑦-⑧-|
⑧□□⑤ |⑨⑩⑪-|

20
□□□□ |①②③④|
①<□□ |⑤⑥⑦⑧|
□∨□□ |⑨⑩⑪⑫|
□①□□ |⑬⑭⑮⑯|

□□□□
②□□∨
□□∨③
□②③□

⑤<□□
□∨□□
□⑤□④
□□④□

⑥□□□
□□>⑦
□⑥□□
□□>⑦

□□□□
□⑨□⑧
□∧□□
⑨<□⑧

□□⑪<
□⑩□□
□□⑪<
⑩□□□

□⑬⑫□
□∧□□
⑬<⑫□
□□□□

□⑭□⑮
□□⑮∧
⑭□∧□
□□□□

□□□⑯
□□⑯□
□□□□
□□□□

21
⑨□⑧□ |①②③-|
③⑦⑩⑧ |④-⑤⑥|
⑪⑤□④ |⑦-⑧-|
□①②⑥ |⑨⑩⑪-|

22
⑩②⑨① |①②③-|
④⑧⑪□ |④-⑤⑥|
□⑥③⑦ |⑦-⑧-|
④⑧⑤□ |⑨⑩⑪-|

23
□①□□ |①②③④|
□∧□□ |⑤⑥⑦⑧|
①<□□ |--⑨-|
□□□□ |----|

□②>③
□□∨□
②□③□
□□□□

□□□④
⑤<□□
□□④□
⑤<□□

□□□□
⑥□>⑦
□□□□
⑥□>⑦

□□⑨□
□□□⑧
□⑨□⑨
□□□⑧

24
③③③□ |①---|
③③□□ |②---|
③□③□ |③---|
□①②□ |----|

25
⑧□□⑨ |①②③-|
⑩⑥③⑦ |④-⑤⑥|
⑧②⑪□ |⑦-⑧-|
④④⑤① |⑨⑩⑪-|

26
⑨①⑥⑧ |①②③-|
□⑤②⑧ |④-⑤⑥|
⑪③⑩④ |⑦-⑧-|
⑦□□④ |⑨⑩⑪-|

27
⑦□⑤⑧ |①-②③|
④⑨⑥□ |-④⑤-|
□③⑩□ |⑥-⑦⑧|
⑪①①② |⑨⑩⑪-|

28
□□□□ |①②③④|
□□>① |⑤⑥⑦⑧|
□□∨□ |⑨⑩⑪⑫|
□□①□ |⑬⑭⑮⑯|

□③□□
□∧□②
③<□□
□□②□

□④⑤□
□□∧∨
④□□⑤
□□□□

□□⑥□
⑦<□□
□∨□⑥
□⑦□□

□□□□
⑧□⑨□
□□∧□
□⑧>⑨

⑪<□□
□∨⑩□
□⑪□□
□□□⑩

⑫□>⑬
□□∨□
□⑫⑬□
□□□□

□□□⑭
□⑮□□
□∧⑭□
⑮<□□

□□□□
□⑯□□
□□□□
⑯□□□

29
□②□□ |①-②-|
□□□① |③---|
②□□□ |④-⑤-|
□□①□ |⑥---|

>―③□
④□□□
□>―③
□⑤□□

□□⑥□
□□⑥□
□□□⑥
□□□□

30
⑦⑧⑪⑨ |①②③④|
⑫③□□ |-⑤⑥-|
□①④□ |⑦-⑧⑨|
⑥⑩②⑤ |⑩⑪⑫-|

31
□□□∨ |①②③④|
□□①① |⑤⑥⑦⑧|
□□∧□ |⑨⑩⑪⑫|
□□□□ |⑬⑭⑮⑯|

□∨□□
□③②②
③□□□
∧□□□

□□□□
□④□∨
④□∨⑤
□□⑤□

⑦□□□
∧∨□□
□⑦□⑥
□□⑥□

⑧□□□
□□∨□
□⑧⑨∨
□□□⑨

□□□□
□□□□
∨∨⑩□
⑪⑪□⑩

□□⑬⑬
□□∧∧
□□□□
⑫⑫□□

>⑮⑭⑭
⑮□□□
∧□□□
□□□□

□⑯□□
⑯□□□
□□□□
□□□□

32
□⑪⑩⑨ |①②③-|
□③②① |④-⑤⑥|
⑤⑥⑦④ |⑦-⑧-|
⑧□□□ |⑨⑩⑪-|

33
□□□□ |①---|
③□□② |--②-|
□□□□ |----|
□①①□ |③---|

34
□□□□ |①---|
③④□② |--②-|
□□□□ |----|
□①①□ |③-④-|

35
⑤①①④ |①---|
□□□② |②-③-|
□③□□ |④---|
⑤①①④ |⑤---|

36
⑥⑥⑤⑤ |①-②-|
①②□④ |③-④-|
①□③④ |⑤---|
⑥⑥⑤⑤ |⑥---|

37
□□□□ |①---|
②①②□ |②-③-|
①③□③ |--④-|
□④④□ |--⑤-|

□□□□
□⑤□□
□□⑤□
□□□□

38
②④④③ |--①-|
□□□① |--②-|
①□□□ |③---|
②□□③ |④---|

39
□□□□ |①---|
②□②④ |②-③-|
□③□③ |--④-|
□①①□ |--⑤-|

□□⑤□
□□□□
□□□□
□⑤□□

40
①③□⑥ |①-②-|
③①⑤□ |③-④-|
□⑤②④ |⑤-⑥-|
⑥□④② |----|

41
②□①□ |①---|
□③□① |----|
①□④□ |----|
□①□□ |②③④-|

42
□①□② |①---|
①□③□ |----|
□④□① |----|
□□①□ |②③④-|

43
□②①□ |①---|
①□□② |----|
②□□① |②---|
□①②□ |----|

44
③□②① |①---|
①②□③ |②---|
④③①② |③---|
②①③④ |④---|

45
□⑥□④ |①-②-|
③③□□ |③-④-|
□□②□ |⑤---|
⑤①□□ |⑥---|

46
②□□□ |①---|
□④□□ |②---|
③①□□ |③---|
□□□□ |④---|

47
⑤⑦□④ |①-②-|
□□□⑥ |③-④-|
□③③⑧ |⑤-⑥-|
①□□② |⑦-⑧-|

48
④⑦□□ |①---|
□□③□ |②-③-|
⑥②□□ |④-⑤-|
□①⑤② |⑥-⑦-|

49
□⑥□④ |①-②-|
③③□□ |③-④-|
□□②□ |⑤---|
⑤①□□ |⑥---|

50
①<□□ |①②③④|
□□□□ |⑤⑥⑦⑧|
□①<□ |⑨⑩⑪⑫|
□□□□ |⑬⑭⑮⑯|

②□□□
□>③□
□②□□
□□>③

□□□□
∨□④□
⑤□□□
□⑤<④

□□□∨
□□□⑦
⑥□∨□
□⑥⑦□

□□□□
□⑨<⑧
□□□□
⑨<⑧□

□>⑪□
□⑩□□
□□>⑪
⑩□□□

□□⑫□
□□□□
□□□⑫
□□□□

□⑬<□
⑬□□□
∧□□□
□□□□

□⑭□⑮
⑭□□∧
□□⑮□
□□∧□

□□□⑯
□□□□
□□⑯□
□□□□

51
①□⑧□ |①-②-|
□□③④ |③-④-|
⑤③□□ |⑤-⑥-|
⑦□⑥② |⑦-⑧-|

52
③③□④ |①-②-|
⑤⑦⑧⑥ |③-④-|
□⑨⑩② |⑤-⑥-|
□①□□ |⑦⑧⑨⑩|

53
②④②□ |①---|
□□□④ |②-③-|
⑤□□□ |--④-|
①③⑤③ |--⑤-|

54
①□□③ |--①-|
□②⑤④ |②-③-|
⑦⑥□□ |④-⑤-|
①□□③ |⑥-⑦-|

55
□⑦□④ |①-②-|
③③□⑥ |③-④-|
□□②⑧ |⑤-⑥-|
⑤①□□ |⑦-⑧-|

56
□□□⑦ |①---|
②⑥③□ |②-③-|
□①□□ |④-⑤-|
④□⑤② |⑥-⑦-|

57
②④②□ |①---|
□□□④ |②-③-|
⑤①①□ |--④-|
□③⑤③ |--⑤-|

58
①□□③ |--①-|
□②⑤④ |②-③-|
⑦⑥□□ |④-⑤-|
①□□③ |⑥-⑦-|

59
□③①⑤ |①-②-|
②⑥□□ |--③-|
□□□④ |④---|
□③①⑤ |⑤-⑥-|

60
①⑧⑨□ |①-②-|
□⑥⑦④ |③-④-|
③□②□ |--⑤-|
①□□⑤ |⑥⑦⑧⑨|

61
①□□⑦ |①--②|
③⑧□□ |③-④⑤|
⑥□②① |⑥⑦--|
⑧④⑤⑨ |⑧-⑨-|

62
①⑤□⑪ |①②③-|
④⑧⑦② |④⑤--|
⑥③⑩□ |⑥⑦⑧-|
⑨□□□ |⑨⑩⑪-|

63
①⑧②□ |①--②|
③□□⑦ |③-④⑤|
⑥□□① |⑥⑦--|
⑧④⑤⑨ |⑧-⑨-|

64
①⑪②□ |①②③-|
④⑦⑧□ |④⑤--|
⑥③⑩⑤ |⑥⑦⑧-|
⑨□□□ |⑨⑩⑪-|

65
①□□① |①--②|
⑦□⑨③ |③-④⑤|
⑧②□⑥ |⑥⑦--|
□⑤④⑧ |⑧-⑨-|

66
②⑤⑧① |①②③-|
⑦③□④ |④⑤--|
□⑪⑩⑥ |⑥⑦⑧-|
□□□⑨ |⑨⑩⑪-|

67
①②⑧① |①--②|
⑦□□③ |③-④⑤|
□□□⑥ |⑥⑦--|
□⑤④⑧ |⑧-⑨-|

⑨□□□
□□□□
□□□□
□□□□

68
□⑤□① |①②③-|
⑧②⑫④ |④⑤⑥-|
⑥⑨□⑦ |⑦⑧⑨-|
③⑪⑩□ |⑩⑪⑫⑬|

□□□□
□⑬□□
□□□□
□□□□

69
□□□② |①---|
□□③□ |----|
□④□□ |----|
①□□① |②③④-|

70
②□①□ |①---|
□③□① |----|
①□④□ |----|
□①□□ |②③④-|

71
③①□② |①---|
①④②□ |----|
□②⑤① |②---|
②□①□ |③④⑤-|

72
⑦④②⑦ |①-②-|
③□⑥① |③-④-|
①⑤□③ |⑤-⑥-|
□④②□ |⑦---|

73
□□□□ |①---|
□①□① |----|
□□□□ |----|
①□①□ |----|
最終更新:2023年11月01日 21:59