アットウィキロゴ
Fate / BEMANI Sound Team "TATSUYA"
BPM:200
Notes:837

1
□□①⑥ |①-②-|
□□⑦④ |③-④-|
⑤⑧③① |⑤-⑥-|
①②□□ |⑦-⑧-|

2
□⑦②⑦ |①-②-|
□①□④ |③-④-|
□□⑤□ |⑤-⑥-|
③⑥□□ |⑦---|

3
⑥□□□ |①-②-|
④⑦①□ |③-④-|
①③⑧⑤ |⑤-⑥-|
□□②① |⑦-⑧-|

4
⑥①□□ |①-②-|
□⑥□① |③-④-|
①②□⑤ |⑤---|
③④⑤□ |⑥---|

5
□①②① |①---|
□□□③ |--②-|
①②①□ |----|
□□③□ |③---|

6
□□□② |----|
□□②□ |----|
①□□□ |①---|
□①□□ |②---|

7
①□①③ |①---|
②□□□ |--②-|
□①③① |----|
□②□□ |③---|

8
□□□□ |----|
□□□□ |----|
□□□□ |----|
□□□□ |----|

9
□□□□ |①-②-|
⑦③⑦③ |③-④-|
□□②⑥ |--⑤⑥|
□①④⑤ |⑦-⑧-|

□□□□
□□□□
□□□□
□⑧□□

10
②⑥②⑥ |--①-|
⑤①□□ |②-③-|
④□③□ |--④⑤|
□□□□ |⑥---|

11
□⑪⑫□ |①-②-③-|
⑨①②⑩ |④-⑤-⑥-|
⑬③④⑭ |⑦⑧⑨⑩|
⑦⑤⑥⑧ |⑪⑫⑬⑭|

12
③⑬⑭④ |①②③④|
⑨①②⑩ |⑤⑥⑦⑧|
⑮⑤⑥□ |⑨⑩⑪⑫|
⑪⑦⑧⑫ |⑬⑭⑮-|

13
①⑪⑫④ |①-②-|
⑨⑤⑥⑩ |③-④-|
□⑦⑧② |⑤⑥⑦⑧|
□③□□ |⑨⑩⑪⑫|

14
⑪⑮⑯⑫ |①②③④|
⑬⑦⑧⑭ |⑤⑥⑦⑧|
③⑨⑩④ |⑨⑩⑪⑫|
①⑤⑥② |⑬⑭⑮⑯|

15
□⑦□⑥ |①-②-|
⑦③⑤□ |③-④-|
④□⑤② |⑤-⑥-|
①□③⑧ |⑦-⑧-|

16
□□②□ |①-②-|
□④□④ |③-④-|
□③□① |--⑤-|
⑤①⑤□ |----|

17
③①③② |①---|
②□①□ |--②-|
①□②□ |----|
③②③① |③---|

18
□⑤□⑥ |--①-|
⑦□⑧② |②---|
③①④□ |③④⑤⑥|
□⑨□□ |⑦⑧⑨-|

19
②③①③ |①---|
□①□② |--②-|
□②□① |----|
①③②③ |③---|

20
□□□□ |----|
□□□□ |----|
□□□□ |----|
□□□□ |----|

21
□⑤①⑥ |①-②-|
□□⑦④ |③-④-|
⑤⑧③① |⑤-⑥-|
①②□⑤ |⑦-⑧-|

22
⑦⑤②⑧ |①-②-|
⑤①□④ |③-④-|
□□⑤① |⑤-⑥-|
③⑥①□ |⑦-⑧-|

23
⑥□⑤□ |①-②-|
④⑦①□ |③-④-|
①③⑧⑤ |⑤-⑥-|
⑤□②① |⑦-⑧-|

24
⑧①□⑦ |①-②-|
④□②① |③-④-|
①⑤□□ |⑤-⑥-|
□□⑥③ |⑦-⑧-|

25
□⑤①⑥ |①-②-|
□□⑦④ |③-④-|
⑤⑧③① |⑤-⑥-|
①②□⑤ |⑦-⑧-|

26
⑦⑤②⑧ |①-②-|
⑤①□④ |③-④-|
□□⑤① |⑤-⑥-|
③⑥①□ |⑦-⑧-|

27
□□④□ |①---|
□①②□ |②---|
①③□② |③-④-|
②□□① |--⑤-|

□⑤□□
□□□⑤
⑤□□□
□□⑤□

28
□□□③ |--①-|
□②□□ |②-③-|
□□①□ |----|
□□□□ |----|

29
③□⑦④ |①-②-|
⑦□③⑥ |③-④-|
□⑤□□ |⑤-⑥-|
①②□⑧ |⑦-⑧-|

30
④④□□ |①-②-|
□②⑤⑥ |③-④-|
①⑤□③ |--⑤-|
□□③□ |⑥-⑦-|

□□□□
□□□□
⑦□□□
⑦□□□

31
④⑦□③ |①-②-|
⑥③□□ |③-④-|
□□⑤⑦ |⑤-⑥-|
⑧□②① |⑦-⑧-|

32
□⑦②④ |①-②-|
⑥□□① |③-④-|
⑦⑤⑤⑧ |⑤-⑥-|
□③□③ |⑦-⑧-|

33
③□⑦④ |①-②-|
⑦□③⑥ |③-④-|
□⑤□□ |⑤-⑥-|
①②□⑧ |⑦-⑧-|

34
④④□⑥ |①-②-|
□②⑤□ |③-④-|
①⑤③□ |--⑤-|
□□③□ |⑥-⑦-|

□□□□
□□□□
⑦□□□
⑦□□□

35
②③①④ |①---|
①②□④ |②---|
□□②① |③-④-|
□①□② |--⑤-|

□□□□
⑤□□□
⑤□□□
□□□□

36
⑪⑧⑦⑨ |①②③④|
□⑥⑤□ |⑤⑥⑦⑧|
□④③□ |⑨-⑩-|
⑫②①⑩ |⑪-⑫-|

37
⑤②②□ |①---|
①□④① |--②-|
②③□② |--③④|
□①①□ |⑤---|

38
⑦③□□ |①-②-|
③⑦□⑥ |③-④-|
⑤□②□ |⑤-⑥-|
①⑤⑧④ |⑦-⑧-|

39
□□①⑤ |①---|
②④②□ |--②-|
□①③① |--③④|
□②□□ |⑤---|

40
③□□⑦ |①-②-|
□□□④ |③-④-|
①⑤⑤□ |⑤---|
⑥□□② |⑥-⑦-|

41
□①②□ |①-②-|
⑤①□⑥ |③-④-|
⑦⑤□⑧ |⑤-⑥-|
□③④□ |⑦-⑧-|

42
①③⑤⑦ |①-②-|
⑤⑦①□ |③-④-|
□□③□ |⑤-⑥-|
②④⑥⑧ |⑦-⑧-|

43
①③②□ |①---|
□□①④ |--②-|
③①□② |----|
□②④□ |③-④-|

44
⑦□⑥② |--①-|
□⑤⑧□ |②---|
□⑨④□ |③④⑤⑥|
①③□⑩ |⑦⑧⑨⑩|

45
□①□⑤ |①---|
②④□② |--②-|
①□③□ |--③④|
□②②□ |⑤---|

46
□□③⑦ |①-②-|
⑥□⑦③ |③-④-|
□②□⑤ |⑤-⑥-|
④⑧⑤① |⑦-⑧-|

47
⑤①□□ |①---|
□②④② |--②-|
①③①□ |--③④|
□□②□ |⑤---|

48
□□□③ |①-②-|
④□□□ |③-④-|
□⑥⑥① |⑤-⑥-|
②⑤⑤□ |----|

49
①□⑦④ |①-②-|
④②⑤① |③-④-|
⑥⑧□③ |⑤-⑥-|
⑦□□□ |⑦-⑧-|

50
⑦②□⑤ |①-②-|
④⑧⑥① |③-④-|
⑦□③⑤ |⑤-⑥-|
□□□② |⑦-⑧-|

51
⑦④①□ |①-②-|
④□⑦① |③-④-|
⑦②⑤□ |⑤-⑥-|
⑥①④③ |⑦-⑧-|

□□□□
□□□□
□□□□
□⑧□□

52
⑫④①② |①-②-|
⑥②⑪⑤ |③-④-|
□⑩⑦② |⑤⑥⑦⑧|
⑧□③⑨ |⑨⑩⑪⑫|

53
□□□① |①---|
□□□□ |----|
□□□① |----|
□□□□ |----|

54
□□□□ |----|
□□□□ |----|
□□□□ |----|
□□□□ |----|

55
□□□□ |①-②-|
⑥③⑥③ |③-④-|
□□②□ |--⑤-|
□①④⑤ |⑥-⑦-|

□□□□
□□□□
□□□□
□⑦□□

56
①③②④ |①-②-|
⑥□□⑥ |③-④-|
①③②④ |--⑤-|
⑤□□□ |⑥---|

57
□⑪⑫□ |①-②-③-|
⑨①②⑩ |④-⑤-⑥-|
⑬③④⑭ |⑦⑧⑨⑩|
⑦⑤⑥⑧ |⑪⑫⑬⑭|

58
③⑮□④ |①②③④|
⑨①②⑩ |⑤⑥⑦⑧|
⑬⑤⑥⑭ |⑨⑩⑪⑫|
⑪⑦⑧⑫ |⑬⑭⑮-|

59
④⑭⑬③ |①②③④|
⑩②①⑨ |⑤⑥⑦⑧|
⑯⑥⑤⑮ |⑨⑩⑪⑫|
⑫⑧⑦⑪ |⑬⑭⑮⑯|

60
⑥⑫⑪⑤ |①②③④|
⑧②①⑦ |⑤⑥⑦⑧|
□④③□ |⑨⑩⑪⑫|
⑭⑩⑨⑬ |⑬⑭⑮-|

□□□□
□□⑮□
□□□□
□□□□

61
④⑫⑪③ |①②③④|
⑧⑯⑮⑦ |⑤⑥⑦⑧|
②⑥⑤① |⑨⑩⑪⑫|
⑭⑩⑨⑬ |⑬⑭⑮⑯|

62
②④④① |①-②-|
③□□③ |--③-|
②③③① |--④-|
□④④□ |----|

63
④⑧⑦③ |①-②-|
□□⑤⑦ |③-④-|
②□③① |⑤-⑥-|
⑥⑥□① |⑦-⑧-|

64
④□⑦② |①-②-|
⑥⑤⑤□ |③-④-|
③①③① |--⑤-|
□□□□ |--⑥⑦|

65
⑪③⑯④ |①②③④|
⑮⑬⑭⑥ |⑤⑥⑦⑧|
⑨⑤⑩⑫ |⑨⑩⑪⑫|
①⑦②⑧ |⑬⑭⑮⑯|

66
⑪③⑯④ |①②③④|
⑮⑬⑭⑥ |⑤⑥⑦⑧|
⑨⑤⑩⑫ |⑨⑩⑪⑫|
①⑦②⑧ |⑬⑭⑮⑯|

67
④⑦□② |①---|
□□□□ |②-③-|
□②⑥⑤ |④-⑤-|
①⑤③□ |⑥-⑦-|

68
④□⑤④ |①-②-|
②④①① |③-④-|
①⑧⑦□ |⑤-⑥-|
⑥⑩⑨③ |⑦⑧⑨⑩|

69
□⑤□④ |①-②-|
□③⑥① |③-④-|
□⑦□① |⑤-⑥-|
□□⑧② |⑦-⑧-|

70
①□④⑤ |①-②-|
⑤③□① |③-④-|
①⑥②⑤ |⑤-⑥-|
⑤□⑦① |⑦---|

71
③①③② |①---|
②□①□ |--②-|
①□②□ |----|
③②③① |③---|

72
□⑪⑭⑥ |①②③④|
⑦③⑧④ |⑤⑥⑦⑧|
①⑨⑩② |⑨⑩⑪⑫|
⑬⑤□⑫ |⑬⑭⑮⑯|

□□□□
□□□□
⑮□□⑯
□□□□

73
②③□③ |①---|
□①□② |--②-|
□②□□ |----|
□③②③ |③---|

74
⑤□④□ |--①-|
③⑦①⑥ |②-③-|
①⑤④② |④-⑤-|
⑦□⑥□ |⑥-⑦-|

75
③①③② |①---|
②□①□ |--②-|
①□②□ |----|
③②③① |③---|

76
□⑪⑭⑥ |①②③④|
⑦③⑧④ |⑤⑥⑦⑧|
①⑨⑩② |⑨⑩⑪⑫|
⑬⑤□⑫ |⑬⑭⑮⑯|

□□□□
□□□□
⑮□□⑯
□□□□

77
②③□③ |①---|
□①□② |--②-|
□②□□ |----|
□③②③ |③---|

78
⑦⑪②⑧ |--①-|
①③⑥④ |②-③-|
⑤⑨①② |④⑤⑥⑦|
③□□⑩ |⑧⑨⑩⑪|

79
□□□□ |①---|
□□□□ |----|
□□□□ |----|
□①①□ |----|
最終更新:2023年11月01日 22:00