アットウィキロゴ
Croissant / BEMANI Sound Team "Expander"
BPM:156
Notes:863

1
□⑤②□ |①---|
②①□⑤ |②---|
⑤□①② |③-④-|
③②⑤④ |⑤---|

2
⑤④□② |①---|
②□①⑤ |②---|
⑤①□② |③-④-|
②□③⑤ |⑤---|

3
□□□② |①---|
□②①④ |②---|
③①②□ |③-④-|
②□□□ |⑤---|

⑤□□□
□□⑤□
□⑤□□
□□□⑤

4
□③③① |①-②-|
④①□⑤ |③-④⑤|
⑥□□⑦ |⑥⑦⑧-|
⑧②②□ |⑨---|

⑨□□⑨
□⑨⑨□
□□□□
□□□□

5
□□③□ |①②③-|
⑤⑧□⑦ |④⑤-⑥|
□②□□ |⑦-⑧⑨|
⑨④⑥① |-⑩⑪-|

□□□□
□□⑪□
□□□□
□□□⑩

6
⑫□□⑩ |①②③-|
④⑪⑨⑤ |④⑤⑥⑦|
⑥②①⑦ |⑧-⑨⑩|
⑧□③□ |-⑪⑫-|

7
□□③□ |①②③-|
⑤⑧□⑦ |④⑤-⑥|
□②□□ |⑦-⑧⑨|
⑨④⑥① |-⑩⑪-|

□□□□
□□⑪□
□□□□
□□□⑩

8
③□□① |①-②-|
□□□⑥ |③-④⑤|
⑤③①□ |⑥-⑦-|
⑦②④⑦ |⑧---|

□⑧□⑧
⑧□⑧□
□□□□
□□□□

9
⑤⑧③⑦ |①②③-|
□②□□ |④⑤-⑥|
□□□① |⑦-⑧⑨|
⑨④⑥⑩ |-⑩⑪-|

□□⑪□
□□□□
□□□□
□□□□

10
④□□⑤ |①②③-|
⑥□□⑦ |④⑤⑥⑦|
⑧②①□ |⑧-⑨⑩|
□□③⑨ |-⑪⑫-|

□□□□
□□□□
□⑫⑩□
⑪□□□

11
⑤⑧③⑦ |①②③-|
□②□□ |④⑤-⑥|
□□□① |⑦-⑧⑨|
⑨④⑥⑩ |-⑩⑪-|

□□⑪□
□□□□
□□□□
□□□□

12
①□⑧③ |①-②-|
□⑥□⑧ |③-④⑤|
⑧①③⑤ |⑥-⑦-|
④⑧②⑦ |⑧---|

13
①②⑬⑫ |①②③④|
③④⑮⑭ |⑤⑥⑦⑧|
⑨⑩⑥⑤ |⑨⑩⑪-|
⑪□⑧⑦ |⑫⑬⑭⑮|

14
④⑤□⑪ |①②③-|
⑥⑦⑪□ |④⑤⑥⑦|
⑩□②① |⑧⑨⑩-|
⑧⑨□③ |⑪---|

15
⑤⑥⑨□ |①②③④|
⑦⑧□⑨ |⑤⑥⑦⑧|
⑫□④③ |⑨-⑩⑪|
⑩⑪②① |⑫-⑬-|

□□□□
□□□□
□□□□
□□⑬⑬

16
⑩①⑧⑦ |①②③-|
⑤⑥②④ |④-⑤⑥|
□③□④ |⑦⑧⑨-|
□⑨□⑩ |⑩---|

17
⑧⑨□⑫ |①②③④|
⑩⑪②① |⑤⑥⑦-|
⑦⑬④③ |⑧⑨⑩⑪|
⑤⑥□□ |⑫-⑬⑭|

□□□□
□□□□
□□□□
⑭□□□

18
⑧④①□ |①-②-|
④□⑤① |③-④-|
②⑥③④ |⑤⑥⑦-|
⑦②④⑧ |⑧---|

19
□⑥⑧④ |①-②③|
□□③① |④-⑤⑥|
①□□② |-⑦⑧-|
⑤□□⑦ |⑨---|

□□□□
⑨□□⑨
□□□□
□⑨⑨□

20
①□⑩① |①-②-|
□③④⑩ |③④⑤⑥|
⑩⑤⑥⑦ |⑦⑧⑨-|
②⑩⑧⑨ |⑩---|

21
④①⑤□ |①-②-|
①⑥②⑤ |③④-⑤|
⑦②⑥□ |-⑥-⑦|
□⑦③□ |-⑧⑨⑩|

□⑧□□
⑨□□□
□⑩□□
□□□□

22
⑨⑧⑦⑥ |①-②-|
⑩⑪⑫③ |③④⑤-|
□□④② |⑥⑦⑧⑨|
①□②⑤ |⑩⑪⑫⑬|

□□□□
□□□⑬
□□□□
□□□□

23
□⑥④⑤ |①②③-|
⑥⑦□□ |④⑤-⑥|
①②⑦⑧ |-⑦-⑧|
⑨③⑧□ |-⑨⑩⑪|

□□□□
□□⑪□
□⑩□□
□□□□

24
②⑦□① |①--②|
④□⑦③ |--③-|
③⑦□⑤ |④⑤⑥-|
⑥□⑦② |⑦---|

25
□⑥①⑤ |①②③-|
⑥②⑦□ |④⑤-⑥|
④⑦③⑧ |-⑦-⑧|
□□⑧□ |-⑨⑩⑪|

□□⑨□
□□□⑩
□□⑪□
□□□□

26
⑥⑦⑧⑨ |①-②-|
③⑫⑪⑩ |③④⑤-|
②④□□ |⑥⑦⑧⑨|
⑤②□① |⑩⑪⑫⑬|

□□□□
⑬□□□
□□□□
□□□□

27
⑤④⑥□ |①②③-|
□□⑦⑥ |④⑤-⑥|
⑧⑦②① |-⑦-⑧|
□⑧③⑨ |-⑨⑩⑪|

□□□□
□⑪□□
□□⑩□
□□□□

28
①⑦⑦② |①--②|
③□□④ |--③-|
⑤□□③ |④⑤⑥-|
②⑦⑦⑥ |⑦---|

29
④□□① |①---|
③□□② |②---|
②□□③ |③---|
①□□□ |④---|

30
□①②③ |①---|
⑦⑥⑤④ |②---|
⑪⑩⑨⑧ |③---|
□□③① |④⑤⑥⑦⑧⑨⑩⑪|

31
③□④□ |①---|
⑤□□□ |②-③-|
□□□⑤ |④---|
②④□① |⑤---|

32
□③□① |①---|
⑤④⑥□ |②-③④|
□⑧⑦⑨ |⑤-⑥⑦|
①□□② |⑧-⑨⑩|

□□□□
□□□□
□□□□
□□□⑩

33
⑪⑪⑧□ |①-②③|
□⑤⑨⑩ |④-⑤⑥|
②⑥⑦□ |⑦-⑧⑨|
③④①□ |⑩-⑪-|

34
□⑪⑪□ |①②③④|
⑨⑪⑪⑩ |⑤⑥⑦⑧|
②④⑥⑧ |⑨-⑩-|
①③⑤⑦ |⑪---|

35
□④□③ |①---|
□□□⑤ |②-③-|
⑤①①□ |④---|
□□④② |⑤---|

36
①□③□ |①---|
□⑥④⑤ |②-③④|
□⑦⑧□ |⑤-⑥⑦|
②□□① |⑧---|

37
□□□□ |①---|
□□□□ |----|
①□□① |----|
□①①□ |----|

38
②①③□ |①---|
⑥□⑦① |②③④⑤|
④①⑤□ |⑥⑦⑧⑨|
⑧□⑨① |⑩⑪⑫⑬|

□⑩□⑪
□□□□
□⑫□⑬
□□□□

39
⑤□⑥□ |①②③④|
⑨①⑩② |⑤⑥⑦⑧|
⑦□⑧□ |⑨⑩⑪⑫|
⑪③⑫④ |⑬---|

□□□□
□⑬□□
□□□⑬
□□□□

40
⑥②⑤① |①②③④|
⑩□⑨□ |⑤⑥⑦⑧|
⑧□⑦□ |⑨⑩⑪⑫|
⑫④⑪③ |⑬---|

□⑬□□
□□□⑬
□□□□
□□□□

41
①□②⑫ |①②③④|
⑤⑨⑥⑩ |⑤⑥⑦⑧|
③⑪④□ |⑨⑩-⑪|
⑦□⑧⑪ |-⑫⑬⑭|

□⑭⑬□
□□□□
□□□□
□□□□

42
①□⑩□ |①---|
④⑧②⑥ |②③④⑤|
□□⑪□ |⑥⑦⑧⑨|
⑤⑨③⑦ |⑩⑪⑫⑬|

⑫□□□
□□□□
⑬□□□
□□□□

43
□③□① |①②③④|
⑦⑪⑤⑨ |⑤⑥⑦⑧|
□④□② |⑨⑩⑪⑫|
⑧⑫⑥⑩ |⑬-⑭-|

□□⑬⑬
□□□□
⑭⑭□□
□□□□

44
⑫□⑩□ |①②③④|
④⑧②⑥ |⑤⑥⑦⑧|
⑪□⑨□ |⑨⑩⑪⑫|
③⑦①⑤ |⑬---|

□□□□
□□□□
□□□⑬
□□⑬□

45
□①②② |①---|
①③④① |②---|
□②□□ |③④⑤⑥|
⑤□□⑥ |⑦⑧⑨⑩|

□□□□
⑦□□⑧
□□□□
□⑨⑩□

46
①②③④ |①-②-|
□□□⑤ |③-④-|
①④④⑥ |⑤-⑥-|
□□⑧⑦ |⑦-⑧-|

47
⑤⑥①□ |①-②-|
④□①□ |③-④-|
③□④④ |⑤-⑥-|
②①□⑥ |⑦-⑧-|

□□⑦⑧
□□□⑧
□⑦□□
□□□□

48
⑬⑦⑧⑭ |①②③④|
⑨③④⑩ |⑤⑥⑦⑧|
⑮⑪⑫⑯ |⑨⑩⑪⑫|
⑤①②⑥ |⑬⑭⑮⑯|

49
□③④□ |①-②-|
③⑤⑧④ |③-④-|
□⑦⑥□ |⑤⑥⑦⑧|
①①②② |⑨---|

□□□□
□□□□
□□□□
□⑨□□

50
①②③④ |①②③④|
⑤□□⑥ |⑤⑥-⑦|
⑧□□⑦ |⑧⑨⑩⑪|
⑫⑪⑩⑨ |⑫---|

51
□②②□ |①---|
②①①② |--②-|
③①①□ |----|
□③□□ |--③-|

52
③□□⑦ |①---|
④□①⑧ |--②-|
⑤②□① |③④⑤⑥|
⑥□□□ |⑦⑧⑨⑩|

□□□□
□□□□
□□□⑨
□□□⑩

53
□②②□ |①---|
③□□□ |--②-|
□□□□ |----|
③①①□ |--③-|

54
□□⑤④ |①---|
□③□① |②-③-|
□⑤②⑤ |④---|
□□⑤① |⑤---|

55
①③□③ |①---|
②□①① |②---|
③□□□ |③---|
④□□□ |④---|

56
①□□□ |①-②-|
③□④④ |③---|
④②□□ |④---|
⑤③□① |⑤---|

57
①③□③ |①---|
②□□□ |②---|
③□□□ |③---|
④①①□ |④---|

58
①⑧□□ |①-②-|
③⑦⑥⑤ |③-④-|
⑧②⑧④ |⑤⑥⑦-|
□③□① |⑧---|

59
②⑧⑧① |①②③④|
⑥□⑩⑦ |⑤⑥⑦⑧|
□⑨□③ |-⑨⑩⑪|
□④⑤□ |⑫⑬⑭⑮|

⑫□□⑪
□⑬□□
□□⑭□
□□□⑮

60
⑦③⑥⑪ |①②③④|
⑧□□⑫ |--⑤⑥|
⑨⑤□④ |⑦⑧⑨⑩|
⑩①②□ |⑪⑫⑬⑭|

□□□□
□□□□
□□□⑬
□□□⑭

61
⑧③④⑧ |①②③④|
⑤□②⑫ |⑤⑥⑦⑧|
□⑨⑩⑪ |-⑨⑩⑪|
⑦①⑥□ |⑫⑬⑭⑮|

□□□□
⑮⑭⑬□
□□□□
□□□□

62
□⑧③⑨ |①②③④|
□□□⑩ |⑤⑥⑦⑧|
②⑥⑦⑪ |⑨⑩⑪⑫|
④□⑤① |⑬⑭⑮⑯|

⑬□□□
⑭□□□
⑮□□□
⑯□□⑫

63
⑧⑥①⑧ |①②③④|
⑪⑩⑨⑤ |⑤⑥⑦⑧|
⑫②③□ |-⑨⑩⑪|
□④⑦□ |⑫⑬⑭⑮|

□□□□
□□□□
□⑬⑭⑮
□□□□

64
⑩③⑥□ |①②③④|
⑨⑤□④ |--⑤⑥|
⑧□□⑫ |⑦⑧⑨⑩|
⑦①②⑪ |⑪⑫⑬⑭|

□□□⑭
□□□⑬
□□□□
□□□□

65
⑧③⑥⑪ |①②③④|
□⑤⑩□ |⑤⑥⑦⑧|
⑫⑨④□ |-⑨⑩⑪|
⑦①②⑧ |⑫⑬⑭⑮|

□□□□
□□□□
□□□⑮
□⑬⑭□

66
⑩⑪⑫⑬ |①②③④|
①③⑧④ |⑤⑥⑦⑧|
⑨⑦②□ |⑨--⑩⑪⑫|
⑤□□⑥ |⑬---|

67
□③③□ |①---|
②□□② |--②-|
③②②③ |----|
①①①① |--③-|

68
②□□⑥ |----|
③□□⑦ |--①-|
④□□⑧ |②③④⑤|
⑤①①⑨ |⑥⑦⑧⑨|

69
□□□□ |----|
□□□□ |----|
□□□□ |----|
□□□□ |----|

70
③□③② |①-②-|
④⑦⑥⑤ |③-④-|
□□□② |⑤⑥⑦-|
④①□① |⑧---|

□⑧□□
□□□□
⑧□⑧□
□⑧□□
最終更新:2023年11月01日 22:00