アットウィキロゴ
BPM:160
1
④□□□ |①---|
□□③□ |②-③-|
①□□① |--④-|
□②□□ |--|
2
□□□④ |①---|
□③□□ |②-③-|
①□□① |--④-|
□□②□ |--|
3
□□□□ |①-②-|
□④□□ |③-④-|
①□③① |--⑤-|
□②⑤□ |--|
4
④□□⑥ |①---|
□⑤③□ |②-③-|
□②□□ |④-⑤-|
①□□① |⑥-|
5
④□③□ |①---|
□□⑤□ |②-③-|
①⑥□① |④-⑤-|
②②□□ |⑥-|
6
□④④□ |①-②-|
①⑤□① |③-④-|
②□⑤□ |--⑤-|
□□③□ |--|
7
□④□⑦ |①-②-|
□□③⑤ |③-④-|
⑥②□③ |⑤-⑥-|
①□□① |⑦-|
8
□□□□ |①---|
□∨∨□ |②--③④⑤|
□□□□ |⑥--⑦|
□①①□ |--⑧-|

□⑦□□
⑥⑤④③
□□⑧⑦
⑧□□□

□□□□
□□□□
□□□□
□22□
9
⑤⑤②□ |①--②|
□□□③ |--③-|
③①□④ |-④--|
□④①② |⑤---|
10
⑨□⑧⑨ |--①②|
⑦②③□ |③④⑤⑥|
□①④□ |⑦--⑧|
⑧⑥⑤⑦ |--⑨-|
11
□①④□ |①--②|
③□③② |--③-|
①②④① |-④--|
④□②③ |⑤--⑥|

□□□⑥
□⑥□□
⑤□□⑤
□⑤⑥□
12
①②③□ |--①-|
③□①③ |-②--|
□③②□ |③-④⑤|
②□□① |⑥⑦⑧⑨|

□□□□
□⑨⑧□
④□□⑦
□⑤⑥□
13
①②□③ |①--②|
③□□⑤ |--③-|
□□□□ |-④--|
②④④① |⑤---|
14
⑦⑧⑨⑩ |--①②|
⑥②③⑪ |③④⑤⑥|
⑤①④⑫ |⑦⑧⑨⑩|
□□□□ |⑪⑫--|
15
③□□□ |①--②|
②①①□ |--③-|
□③②□ |-④⑤⑥|
□②①③ |⑦⑧⑨⑩|

□④⑤⑥
⑩⑨⑧⑦
□□□□
□□□□
16
②③⑥④ |①--②|
⑦□□□ |--③-|
①②□① |④⑤⑥⑦|
②⑤③③ |⑧-⑨-⑩-|

□□□□
□⑩⑨⑧
□⑩⑨⑧
□□□□
17
①②④③ |-①--|
⑤□□□ |②--③|
②□□④ |--④-|
①④②③ |⑤---|
18
⑨⑧□⑨ |--①②|
□③②⑦ |③④⑤⑥|
□④①□ |⑦--⑧|
⑦⑤⑥⑧ |--⑨-|
19
□④①□ |①--②|
②③□③ |--③-|
①④②① |-④--|
③②□④ |⑤--⑥|

⑥□□□
□□⑥□
⑤□□⑤
□⑥⑤□
20
□③②① |--①-|
③①□③ |-②--|
□②③□ |③-④⑤|
①□□② |⑥⑦⑧⑨|

□□□□
□⑧⑨□
⑦□□④
□⑥⑤□
21
④②④⑧ |-①--|
□⑥⑦④ |②③-④|
⑤□③□ |--⑤⑥|
①⑨⑨① |⑦⑧⑨-|
22
③②②④ |①--②|
①④□③ |--③-|
□③④① |-④--|
①□□② |⑤⑥⑦⑧|

□□□□
⑦□□□
□□□⑧
□⑤⑥□
23
□①①□ |①---|
□②③□ |--②③|
⑥⑤④⑪ |④⑤⑥⑦|
⑦⑧⑨⑩ |⑧⑨⑩⑪|
24
③⑤②④ |①②-③|
②⑦③① |-④⑤-|
⑤□⑥□ |⑥-⑦|
⑥□□□
25
□□□④ |①--②|
③□④② |--③-|
□②□③ |④-|
□①①□
26
□①□□ |①--②|
□□□□ |③-④-|
□□□□ |⑤-⑥-|
□∧②③

□□⑤□
□□□□
>□□⑥
□④□□

□6□□
□□□□
□□□□
□□□□
27
□□□□ |①②--|
①□④④ |③-④-|
②③□□ |⑤-⑥-|
□⑤□□

□□□□
□□□□
□□□□
⑥□□<

□□□□
□□□□
□□□6
□□□□
28
□□②□ |-①--|
③④⑤⑥ |②--③④⑤|
□□①□ |⑥-⑦-|
□⑦⑦□
29
⑦⑤⑥② |①②③④|
□□□□ |⑤⑥⑦⑧|
③①⑧□ |⑨⑩⑪⑫|
□□□④ |⑬⑭⑮⑯|

□□□⑭
⑬⑨□⑩
□⑮□⑫
□⑪⑯□

□□□□
□□□□
□□□□
1□□□
30
□□□□ |①--②|
□□□□ |③-④-|
①□□< |⑤-⑥-|
□□□□

□⑤⑤□
□□③□
□□②□
□□□④

□□□□
>□□⑥
□□□□
□□□□

□□□□
□□□□
6□□□
□□□□
31
□□□□ |①②--|
④④□□ |③-④-|
□③□□ |⑤-⑥-|
①②⑤□

⑥□□□
□□□□
□□□□
∧□□□

□□□□
□□□6
□□□□
□□□□
32
□②③⑦ |-①--|
□□④□ |②--③④⑤|
□□⑤① |⑥-⑦-|
□□⑥①
33
1□□□ |①②③④|
⑩①⑦④ |⑤⑥⑦⑧|
⑪②⑧⑤ |⑨⑩⑪⑫|
⑫③⑨⑥ |⑬⑭⑮⑯----|

⑯⑮⑭⑬
□□□□
□□□□
□□□□
34
□□⑤□ |①---|
③⑥□③ |----②-|
④①□① |③---④-|
□②⑦□ |⑤-⑥-⑦-|
35
□□□□ |①-②-③-|
□□⑤⑤ |④-⑤---|
□④②② |⑥-⑦-⑧-|
①③□□ |⑨-⑩-⑪-|

□□□⑧
⑨⑦□□
⑥□□⑩
□□⑪□
36
②①①② |①---|
□□③□ |----|
□□□③ |②---③-|
④④□□ |--④---|
37
□①①□ |①---②-|
□②□□ |--③---|
②□□□ |④-⑤-⑥-|
□□③③ |⑦-⑧-⑨-|

□□⑨□
④□□⑥
□⑤□⑧
⑦□□□
38
□□□□ |①---|
□①①□ |----|
□□□□ |②---③-|
□□□□ |--④---|

□□□□
□④□④
③□③□
□②□②
39
④□□□ |①-②-③-|
②□⑤□ |④-⑤-⑥-|
□□□③ |⑦⑧⑨⑩|
①□□⑥ |⑪⑫⑬⑭|

□□⑭□
⑬□□⑫
⑪⑨⑩□
□⑦⑧□
40
①⑤□③ |①-②-|
□①③□ |③-④-|
⑤⑧⑦⑥ |⑤---⑥⑦|
②□□④ |⑧---|
41
□□□□ |①---|
①□□① |②---|
□□□□ |③-④-⑤-|
□②②□ |⑥-⑦-⑧-|

□□④□
⑥③□□
□□□⑤
⑦□□⑧
42
②②⑥□ |①-②-|
⑦⑤□⑦ |③④⑤⑥|
①①④□ |--⑦-|
⑧③□⑧ |-⑧--|
43
④⑤⑥① |-①②③|
⑦□②⑦ |--④⑤|
⑧③□□ |⑥--⑦|
□⑧⑧⑦ |--⑧-|
44
□②□① |①---|
□②□□ |②---|
□□①② |③--④|
①□□□ |--⑤-|

④□④⑤
③□□③
⑤③⑤□
□□□④
45
□□□□ |--①-|
□①①□ |----|
□□□□ |--②③|
□①①□ |④⑤⑥⑦|

□□⑤□
④□⑦□
□⑥□③
②□□□
46
①□④⑤ |①--②|
⑤③⑥② |--③-|
①⑥③□ |-④--|
□□②④ |⑤--⑥|
47
①□□□ |--①-|
□□□□ |-②--|
□□□□ |③④⑤⑥|
②①②□ |⑦⑧⑨⑩|

⑨□⑥⑩
□⑤⑧□
③⑦□④
□□□□
48
□①□□ |①---|
①□□② |②---|
□□②□ |③--④|
□□□□ |--⑤-|

④□③⑤
⑤□□□
③⑤□④
□③④□
49
⑦⑧⑨⑩ |----|
□⑥□□ |--①②|
□□⑤□ |③④⑤⑥|
①②③④ |⑦⑧⑨⑩|
50
④□□□ |①---|
□□③□ |②-③-|
①□□① |--④-|
□②□□ |--|
51
□□□④ |①---|
□③□□ |②-③-|
①□□① |--④-|
□□②□ |--|
52
□□□□ |①-②-|
□④□□ |③-④-|
①□③① |--⑤-|
□②⑤□ |--|
53
④□□⑥ |①---|
□⑤③□ |②-③-|
□②□□ |④-⑤-|
①□□① |⑥-|
54
□□③□ |①---|
□□④□ |②-③-|
①□□① |--④-|
□②□□ |--|
55
□③□□ |①---|
①□□① |②-③-|
□□④□ |--④-|
□□②□ |--|
56
□④□□ |①-②-|
□□③□ |③-④-|
⑤②□□ |--⑤-|
①□□① |--|
57
□□□□ |①---|
□□□□ |------|
□□□□ |②③④⑤⑥⑦|
□①①□ |⑧⑨⑩|

⑤④③②
⑥□□□
⑦□□□
⑧⑨⑩□
58
④□□④ |①--②|
□③②□ |--③-|
□②⑤③ |-④--|
□⑤□① |⑤-|
59
□①②④ |①--②|
③□⑤③ |--③-|
③□□③ |----|
①□□② |④⑤|
60
□□□□ |①---|
□②□⑥ |②③④-|
□①③□ |--⑤-|
⑤□□④ |⑥-|
61
□②④□ |①--②|
□③①□ |--③-|
①□□③ |-④--|
⑤④②⑤ |⑤-⑥⑦|

□□□⑥
□□⑦□
□□□□
□□□□
62
□□□□ |①---|
②④□② |----|
②①□② |②---|
③□□□ |③④|
63
①⑦⑧③ |①---|
⑥□②□ |②③④-|
□□□□ |--⑤⑥|
□⑤□④ |⑦⑧|
64
②□□□ |①---|
□□□⑥ |②③④-|
⑤□□① |--⑤-|
③□④□ |⑥-|
65
④③③④ |①--②|
①□②□ |--③-|
□②④① |-④--|
③①□② |⑤-⑥-|

□□□□
□⑥□□
⑤□□⑥
□□⑤□
66
□□⑦□ |①---|
①⑥①⑤ |----|
□④□□ |②③④⑤|
②①③① |⑥⑦|
67
□□⑨② |①②-③|
⑦⑩⑤⑧ |④⑤-⑥|
①□⑥③ |⑦⑧-⑨|
□④□⑪ |⑩⑪|
68
①⑩□② |①-②③|
⑩□③□ |④⑤⑥⑦|
□④⑨⑧ |⑧⑨-⑩|
⑤⑥⑦□ |--|
69
□④②□ |①--②|
□□③① |--③-|
①③□□ |-④--|
④□□② |⑤-⑥⑦|

□□□□
⑤⑦□□
⑥□□⑤
□□□□
70
□□①③ |①---|
□□②□ |----|
□②□□ |②--③|
□□□③ |--|
71
②④④□ |①--②|
□①□□ |--③-|
③□①③ |-④--|
②④④□ |⑤-⑥-|

□□□□
□⑤□□
□□⑥□
□□□□
72
□⑤⑥□ |①---|
□□□⑦ |----|
②□□□ |②③④⑤|
□③④① |⑥⑦|
73
①□□② |①--②|
②③□□ |--③-|
③①②③ |④⑤⑥⑦|
□□□□ |⑧⑨⑩⑪|

⑩⑥⑦⑪
□□□□
□□□□
④⑧⑨⑤
74
⑩⑦⑧⑩ |①②③④|
□④⑤⑥ |⑤⑥⑦⑧|
□①②③ |⑨--⑩|
⑨□□⑨

□□□□ |----⑪⑫⑬⑭|
⑮⑯⑰⑱ |⑮⑯⑰⑱|(32分)
⑪⑫⑬⑭
□□□□
75
□①□□ |①--②|
□□□□ |③-④-|
□□□□ |⑤-⑥-|
□∧②③

□□⑤□
□□□□
>□□⑥
□④□□

□6□□
□□□□
□□□□
□□□□
76
□□□□ |①②--|
①□④④ |③-④-|
②③□□ |⑤-⑥-|
□⑤□□

□□□□
□□□□
□□□□
⑥□□<

□□□□
□□□□
□□□6
□□□□
77
□□②□ |-①--|
③④⑤⑥ |②--③④⑤|
□□①□ |⑥-⑦-|
□⑦⑦□
78
④②③① |①--②|
□□④□ |-③--|
□③②① |④---|
1□□④ |⑤⑥⑦⑧|

□□□⑧
□⑦□□
□□□□
⑤□⑥□
79
□□□□ |①--②|
□□□□ |③-④-|
①□□< |⑤-⑥-|
□□□□

□⑤⑤□
□□③□
□□②□
□□□④

□□□□
>□□⑥
□□□□
□□□□

□□□□
□□□□
6□□□
□□□□
80
□□□□ |①②--|
④④□□ |③-④-|
□③□□ |⑤-⑥-|
①②⑤□

⑥□□□
□□□□
□□□□
∧□□□

□□□□
□□□6
□□□□
□□□□
81
□②③⑦ |-①--|
□□④□ |②--③④⑤|
□□⑤① |⑥-⑦-|
□□⑥①
82
1□□□ |①②③④|
⑩①⑦④ |⑤⑥⑦⑧|
⑪②⑧⑤ |⑨⑩⑪⑫|
⑫③⑨⑥
83
⑩①⑦④ |①②③④|
⑪②⑧⑤ |⑤⑥⑦⑧|
□⑥□⑨ |⑨⑩⑪⑫|
□③⑫□
84
□①⑦④ |①②③④|
⑪②⑧⑤ |⑤⑥⑦⑧|
③⑥⑩⑫ |⑨⑩⑪⑫|
⑪⑨⑫⑩
85
①①□□ |①---|
□□□□ |----|
□□□□ |----|
□□□□
最終更新:2023年12月11日 13:03