アットウィキロゴ
pray nightly / BEMANI Sound Team "猫叉Master"
BPM:170
Notes:777

1
□□□□ |----|
□□□□ |----|
□□□□ |----|
□□□□ |----|

2
□①②□ |----|
□□□□ |----|
□□□□ |----|
□□□□ |--①②|

3
②⑤□① |①---|
□□④| |②---|
⑤―<| |③-④-|
□③③∧ |--⑤-|

4
□□②□ |--①-|
③②|□ |--②-|
□□∧① |--③-|
□□□□ |④---|

□□④④
□□□□
④□④□
□□□□

5
①②□□ |①---|
|□④□ |②---|
|⑥―< |③-④-|
∧③□⑤ |⑤-⑥-|

6
□①―< |--①-|
□□□□ |--②-|
□□□□ |----|
>―②□ |③--④⑤⑥|

③③□④
□□③⑤
□③□⑥
□□③□

7
□□②□ |①---|
□□|□ |②---|
□□|□ |--③-|
□□∧① |--④-|

□□□□
□③③□
□④―<
□□□□

8
□①□□ |--①-|
③>―② |--②-|
□□□□ |--③-|
□□□□ |④---|

□□④□
□□□④
□④④□
□□□□

9
□①□② |①---|
□|□□ |②---|
□|□□ |③-④-|
□∧□□ |⑤-⑥-|

□□□□
□□□□
□□④□
□③□⑤

□□□□
□□□□
⑥―<□
□□□□

10
□□□□ |--①-|
□□□① |--②-|
①□□| |--③-|
□□□∧ |④---|

□□②□
□□|②
□□∧□
□□□□

□④③□
□③□□
□□④□
□□□□

11
□□□① |①---|
□□□| |--②③|
②③④| |④⑤⑥⑦|
□□□∧ |⑧⑨⑩-|

□□□□
⑥⑦⑧⑨
□□□⑤
□□□□

□□□□
□∨□□
□|□□
□⑩□□

12
□□□□ |----|
①―<□ |--①-|
□□□□ |----|
□①□□ |②---|

□□□②
②□□□
□□□□
□□□□

13
①□□□ |①---|
|□□□ |②③④⑤|
|④③② |⑥⑦⑧⑨|
∧□□□ |--⑩-|

□□□□
□□□□
⑤□□□
⑨⑧⑦⑥

□□□□
□⑩□□
□|□□
□∧□□

14
□□□□ |--①-|
□①□① |--②-|
□□□| |----|
□□□∧ |③---|

□□□□
□□∨②
□□|□
□□②□

③□□□
□□□□
□□□□
□③③□

15
□□③□ |--①②|
□□|□ |③④⑤⑥|
①②|□ |⑦⑧--|
□□∧□ |--⑨-|

□□□□
⑤⑥⑦⑧
□□③④
□⑨―<

16
□□□□ |----|
①―<□ |--①-|
□□□□ |----|
□①□□ |②---|

□□②□
②□□②
□□□□
□□□□

17
①②□□ |①---|
|□□□ |----|
|□□□ |----|
∧□②① |--②-|

18
□④□① |--①-|
③②□③ |--②-|
□①③□ |--③-|
②□□□ |-------④|

19
①□①② |①②------|
□□□□ |----|
□□□□ |----|
□□□□ |----|

20
①□□□ |①-②-|
|□□□ |③-④-|
∧□□□ |⑤-⑥-|
□③②① |⑦---|

④⑥⑤④
□□□□
□④―<
□□□□

□□□□
□□□□
□□□⑦
□□□□

21
□□□□ |①-②-|
①□①□ |③-④-|
②①|□ |⑤-⑥-|
③□∧□ |⑦---|

□④⑤⑥
□□④□
□⑦□□
□>―④

22
①□□□ |①-②-|
|□□① |③-④-|
∧□②□ |⑤-⑥-|
□③□① |⑦-⑧⑨|

④④⑤⑥
□⑦□□
④―<□
□□□□

□□□□
⑧□□□
⑧⑨□□
□□□□

23
□□□□ |①-②-|
□□□① |③-④-|
□□□| |⑤-⑥-|
③②①∧ |⑦-⑧-|

□④⑤⑥
□□□④
□□□□
□>―④

□□□□
□□⑧□
□⑦□□
□□□⑦

24
①□□□ |①-②-|
|□□□ |③-④-|
∧□□□ |⑤-⑥-|
□②①□ |⑦-⑧⑨|

④□□□
□④―<
③⑥⑤④
③□□□

□⑧⑨□
□⑦□□
□□□□
□□⑦□

25
④□□① |①-②-③-|
③□⑤② |④-⑤-|
②□|③ |⑥-⑦-|
⑤⑥∧④ |⑧-⑨⑩|

□⑧□□
□⑩⑨□
□□⑨□
□□⑦□

26
①―<① |①-②-|
□□□② |③-④-|
□□□③ |⑤-⑥-|
□□□□ |⑦-⑧-|

④□□□
□□□□
④―<□
④⑤□□

□□□□
□□□□
⑥□□□
□□⑥<

□□□□
□∨□□
□⑦□□
□□⑦□

□□□□
□□⑧□
□⑧∧□
□□□□
27
□①□① |①-②-|
□|①② |③-④-|
□|□③ |----|
□∧□④ |⑤---|

□⑤□□
□□□□
□□□□
□□□□

28
①□□① |①---|
|□□□ |②-③-|
∧□□□ |--④-|
□②□□ |⑤---|

③□④□
□□□③
□③―<
□□□③

□□□□
□□□□
□□□⑤
□□□□

29
□①□□ |①---|
□□①□ |②-③-|
□①|□ |--④-|
□□∧□ |⑤---|

□□□□
□□□□
□□□□
□□②□

□□□□
③④③□
□□⑤□
③>―③

30
①□□□ |①---|
|□□① |②-③-|
∧□□□ |--④-|
□□②① |⑤-⑥⑦|

③□③□
□④⑤□
③―<③
□□□□

□□□□
⑥□□□
⑥⑦□□
□□□□

31
□□□□ |①---|
□□□① |②-③-|
□□□| |--④-|
②□①∧ |⑤-⑥-|

□③□□
□□□③
□□③④
□>―③

□□□□
□□⑥□
□⑤□□
□□□⑤

32
①□□① |①---|
|□□□ |②-③-|
∧□□□ |--④-|
□□□□ |⑤-⑥⑦|

③□□□
□③―<
②□□③
□④③□

□⑥⑦□
□⑤□□
□□⑤□
□□□□

33
④□⑦① |①-②-③-|
③⑨⑤② |④-⑤-|
②⑥⑧③ |--⑥-|
⑤□□④ |⑦-⑧⑨|

34
①□□① |①---|
|□□□ |②-③-|
∧□□□ |--④-|
□②□□ |⑤-⑥-|

③③□□
□□□③
③―<□
□□□□

□□□□
□□□□
④□□□
□□④<

□□□□
□∨□□
□⑤□□
□□⑤□

□□□□
□□⑥□
□⑥∧□
□□□□

35
②②□① |①---|
□□①| |②---|
□□□∧ |③-④-|
□□□□ |⑤-⑥-|

□□□□
□□□□
□□③<
④□□□

□□□⑥
□⑤□□
⑤□⑥□
□□□□

36
□∨□□ |①---|
□|②② |②---|
□①□□ |③-④-|
□□□□ |⑤-⑥-|

③<⑤□
□□□□
□□□⑤
□□④□

⑥□□□
□□□□
□⑥□□
□□□□

37
□□□□ |①---|
□□①□ |②---|
□□|□ |③-④-|
②②∧□ |⑤-⑥-|

⑤⑤□□
□□□□
④□□□
□□>③

□□□□
□□⑥□
□□□□
□□□⑥

38
□∨②□ |①-②-|
□|□② |③---|
□①□□ |④---|
□□③□ |⑤-⑥-|

④<□□
□⑤⑤□
□□□□
□□□□

⑥□□□
□□□□
□⑥□□
□□□□

39
□②□① |①---|
□□□| |②---|
②□□∧ |③-④-|
□□□□ |⑤-⑥-|

□□□□
⑤□□□
□□③<
⑤□④□

□□□⑥
□□□□
□□⑥□
□□□□

40
□□□□ |①---|
□∨②② |②---|
□|□□ |③-④-|
□①□□ |⑤-⑥-|

□④□□
③<□□
□□□⑤
□□⑤□

□□□□
⑥□□□
□□□□
□⑥□□

41
②□□□ |①---|
□□□∨ |②---|
②□□| |③-④-|
□□□① |⑤-⑥-|

□□④□
⑤□③<
□□□□
□⑤□□

□□□□
□□⑥□
□□□□
□□□⑥

42
□∨□□ |①---|
□|□□ |②---|
□①□□ |③-④-|
□□□□ |⑤-⑥-|

③□⑤②
□②□⑤
⑥③⑥□
□□④□

43
□①□① |①-②-|
②□□| |③-④-|
□□□| |⑤-⑥-|
□②□∧ |⑦-⑧-|

□⑦□□
□⑥③⑤
⑥⑤⑦③
④□④□

⑧□⑧⑧
|□□□
|□□□
∧□□□

44
□□⑤□ |--①-|
□③②④ |②-③-|
④⑤⑥② |④-⑤-|
③①①⑥ |⑥---|

45
①①□① |①-②-|
②□□| |③-④-|
□□□| |⑤-⑥-|
□②□∧ |⑦-⑧-|

□⑦□□
□⑥③⑤
⑥⑤⑦③
④□④□

⑧□⑧⑧
|□□□
|□□□
∧□□□

46
□⑥□⑨ |--①-|
⑧③②⑤ |②-③-|
⑩④⑪② |④⑤⑥⑦|
③①①⑦ |⑧⑨⑩⑪|

47
①∨①□ |①---|
□||□ |②---|
□||□ |③---|
□②∧□ |④---|

□□□□
③―<□
□>―④
□□□□

78
□□□□ |①---|
□□∨□ |②---|
□□①□ |③---|
□□□□ |④---|

□□②□
②□□□
□□②②
□②□□

□□□□
□□□□
③――<
□□□□

□□□④
□□□|
□□□|
□□□∧

79
>―①□ |①---|
□∨③< |②---|
□④□□ |③---|
>―②□ |④---|

50
□□□□ |①---|
□□□□ |②---|
□□①< |③---|
□□□□ |④---|

□□②②
□□②□
②②②□
□□②□

□□□□
∨□□□
|□□□
③□□□

□□□□
□□□□
□□□□
④□□□

51
①――< |①-②-③-|
□□□□ |④-⑤-⑥-|
□□□□ |⑦-⑧-⑨-|
□①②③ |⑩-⑪-⑫-|

④□□□
□□□□
□④⑤⑥
□□□□

□□□□
⑦――<
□□□□
□□□□

□□□□
□⑦⑧⑨
□□□□
□□□□

□⑩⑪⑫
⑩□□□
□□□□
□□□□

52
□□□□ |①-②-③-|
□□□□ |④-⑤-⑥-|
①――< |⑦-⑧-⑨-|
□③②① |⑩-⑪-⑫-|

⑦――<
□⑨⑧⑦
④⑥⑤④
□□□□

⑩⑫⑪⑩
□□□□
□□□□
□□□□

53
□□□□ |①-②-③-|
□□□□ |④-⑤-⑥-|
>――① |⑦-⑧-⑨-|
③②①□ |⑩-⑪-⑫-|

□□□□
⑨⑧⑦□
⑥⑤④④
>――⑦

⑫⑪⑩□
□□□□
□□□□
□□□⑩

54
□□□□ |①-②-③-|
>――① |④-⑤-⑥-|
□□□□ |⑦-⑧-⑨-|
①②③□ |⑩-⑪-⑫-|

□□□□
□□□④
④⑤⑥□
□□□□

□□□□
⑦⑧⑨□
>――⑦
□□□□

⑩⑪⑫□
□□□□
□□□⑩
□□□□

55
□□□① |①---|
□□□□ |----|
□□□□ |----|
①□□□ |----|

56
□□□□ |----|
④③②① |----|
□□□□ |----|
□□□□ |①②③④|

57
□□□① |①-②-|
□□□| |③-④-|
□□□| |--⑤-|
②□②∧ |--⑥-|

④□④□
□□|□
□③∧③
□□□□

□⑤⑤□
□□□□
⑤―<□
□□□□

□□□□
⑥>―⑥
⑥□□□
□□□□

58
①□□□ |--①-|
□□①① |②-③-|
□②□□ |--④-|
□□□□ |⑤⑥⑦⑧|

□□□□
□□□□
□>―③
③□□□

□□□④
⑤⑥⑦⑧
□□□④
□□□□

59
①□□□ |①-②-|
|□□□ |③-④-|
|□□□ |--⑤-|
∧②□② |--⑥-|

□④□④
□|□□
③∧③□
□□□□

□⑤⑤□
□□□□
□>―⑤
□□□□

□□□□
□⑥□⑥
□|□⑥
□∧□□

60
□□□□ |--①-|
∨①□□ |--②-|
|□□□ |--③-|
①□①□ |④---|

□②―<
□□□□
□□②□
②□□□

③③□□
□□③□
□□□□
□④□□

61
□□□① |①-②-|
□□□| |③-④-|
□□□| |--⑤-|
②□②∧ |--⑥-|

④□④□
□□|□
□③∧③
□□□□

□⑤⑤□
□□□□
⑤―<□
□□□□

□□□□
⑥>―⑥
⑥□□□
□□□□

62
①□□□ |--①-|
□□①① |②-③-|
□②□□ |--④-|
□□□□ |⑤---|

□□□□
□□□□
□>―③
③□□□

□□□④
□□□□
□□□④
□⑤⑤□

63
①□①□ |①---|
|□□□ |②-③-|
|□□□ |④---|
∧□□□ |⑤---|

□□□□
□②□②
①|③□
□∧□□

□□□□
□④□∨
□□□|
□④□④

□⑤□□
□□□□
□□□□
□□⑤⑤

64
②□□□ |----|
□□③③ |--①-|
□□□□ |②---|
①①□□ |③---|

65
□□□① |①-②-|
□□□| |③-④-|
□□□| |--⑤-|
②□②∧ |--⑥-|

④□④□
□□|□
□③∧③
□□□□

□⑤⑤□
□□□□
⑤―<□
□□□□

□□□□
⑥>―⑥
⑥□□□
□□□□

66
①□□□ |--①-|
□□①① |②-③-|
□②□□ |--④-|
□□□□ |⑤⑥⑦⑧|

□□□□
□□□□
□>―③
③□□□

□□□④
⑤⑥⑦⑧
□□□④
□□□□

67
①□□□ |①-②-|
|□□□ |③-④-|
|□□□ |--⑤-|
∧②□② |--⑥-|

□④□④
□|□□
③∧③□
□□□□

□⑤⑤□
□□□□
□>―⑤
□□□□

□□□□
□⑥□⑥
□|□⑥
□∧□□

68
□□□□ |--①-|
∨①□□ |--②-|
|□□□ |--③-|
①□①□ |④---|

□②―<
□□□□
□□②□
②□□□

③③□□
□□③□
□□□□
□④□□

69
□□□① |①-②-|
□□□| |③-④-|
□□□| |--⑤-|
②□②∧ |--⑥-|

④□④□
□□|□
□③∧③
□□□□

□⑤⑤□
□□□□
⑤―<□
□□□□

□□□□
⑥>―⑥
⑥□□□
□□□□

70
①□□□ |--①-|
□□①① |②-③-|
□②□□ |--④-|
□□□□ |⑤---|

□□□□
□□□□
□>―③
③□□□

□□□④
□□□□
□□□④
□⑤⑤□

71
①□①□ |①---|
|□□□ |②-③-|
|□□□ |④---|
∧□□□ |⑤---|

□□□□
□②□②
①|③□
□∧□□

□□□□
□④□∨
□□□|
□④□④

□⑤□□
□□□□
□□□□
□□⑤⑤

72
②□□□ |----|
□□③③ |--①-|
□□□□ |②---|
①①□□ |③---|

73
□□□① |①---|
□□□| |②③④⑤|
②③④| |⑥⑦⑧⑨|
□□□∧ |--⑩-|

□□□□
⑥⑦⑧⑨
□□□⑤
□□□□

□□□□
□∨□□
□|□□
□⑩□□

74
□□□□ |----|
①―<□ |--①-|
□□□□ |----|
□①□□ |②---|

□□□②
②□□□
□□□□
□□□□

75
①□□□ |①---|
|□□□ |--②③|
|④③② |④⑤⑥⑦|
∧□□□ |⑧⑨⑩-|

□□□□
□□□□
⑤□□□
⑨⑧⑦⑥

□□□□
□□⑩□
□□|□
□□∧□

76
□>―① |--①-|
□□①□ |--②-|
□□□□ |----|
□□□□ |③---|

□□□②
□>―②
□□□□
□□□□

③③□□
□□□③
□□□□
□□□□

77
□□③□ |--①②|
□□|□ |③④⑤⑥|
①②|□ |⑦⑧--|
□□∧□ |--⑨-|

□□□□
⑤⑥⑦⑧
□□③④
□□□□

□□□□
∨□□□
|□□□
⑨□□□

78
□□□□ |----|
□□∨□ |--①-|
□□|□ |--②-|
①□①□ |③④⑤⑥|

□□②□
⑥⑤④③
□□□□
□□②□

79
□①□□ |①②③④|
□|□□ |----|
□|②① |----|
□∧□□ |⑤-⑥-|

□⑤□□
□□□□
④③□□
□□□□

⑥□□□
|□□□
|□□□
∧□⑥□

80
□□②① |--①-|
□□|| |--②-|
②①|| |--③-|
□□∧∧ |--④-|

□③□□
□|③□
□|□□
□∧□□

□□□□
□□□□
>④④<
□□□□

81
□□□□ |----|
□□□□ |----|
□□□□ |----|
□□□□ |----|

82
①①①① |①---|
□□□□ |----|
□①①□ |----|
□□□□ |----|
最終更新:2023年11月01日 22:01