アットウィキロゴ
Stylus / BEMANI Sound Team "HuΣeR"
BPM:165
Notes:754

1
□□□□ |①---|
□□□□ |----|
□□□□ |----|
①――< |----|

2
□□□□ |----|
□□□□ |----|
□□□□ |----|
①□□□ |①---|

3
□③□② |①---|
□□④② |②---|
①⑤□□ |③-④-|
□①⑥□ |⑤-⑥-|

4
⑦□□□ |①-②-|
①③□⑥ |③---|
⑤□□□ |④-⑤-|
②□□④ |⑥-⑦-|

5
□⑤□① |①---|
□④□□ |②---|
□②□□ |③-④-|
□③□□ |⑤---|

6
□□□□ |①---|
□□□① |②---|
□□□∧ |③---|
□□□□ |④---|

□□□□
②―<②
□□□□
□□□□

□□□□
③□□□
∨□□□
③□□□

□□□□
□□□□
□□□□
④>―④

7
□③□② |①---|
□□④② |②---|
①⑤□□ |③-④-|
□①⑥① |⑤-⑥-|

8
⑦□□□ |①-②-|
①③□⑥ |③---|
⑤□□□ |④-⑤-|
②□□④ |⑥-⑦-|

9
⑤□□① |①---|
□④□□ |②---|
□②□□ |③-④-|
□③□□ |⑤---|

10
□①□□ |①---|
①□②□ |②---|
□②□□ |③---|
①――< |④---|

□□□□
□□□□
□□□③
④□③□

11
□③□② |①---|
□□④② |②---|
①⑤□□ |③-④-|
□①⑥□ |⑤-⑥-|

12
⑦□□□ |①-②-|
①③□⑥ |③---|
⑤□□□ |④-⑤-|
②□□④ |⑥-⑦-|

13
□⑤□① |①---|
□④□□ |②---|
□②□□ |③-④-|
□③□□ |⑤---|

14
□□□□ |①---|
□□□① |②-③-|
□□□∧ |④---|
□□□□ |⑤---|

□□□□
②―<②
□③□□
□□□□

□□□□
④□□□
∨□□□
④□□□

□□□□
□□□□
□□□□
⑤>―⑤

15
□③□② |①---|
□□④② |②---|
①⑤□□ |③-④-|
□①⑥① |⑤-⑥-|

16
⑦□□□ |①-②-|
①③□⑥ |③---|
⑤□□□ |④-⑤-|
②□□④ |⑥-⑦-|

17
□□□① |①---|
□④□□ |②---|
□②□□ |③-④-|
□③□□ |⑤---|

⑤――<
□□□□
□□□□
□□□□

18
①□□□ |①---|
□□□□ |②---|
①――< |③---|
□□□□ |④---|

□□□□
②――<
②□□□
□□□□

□□□□
③□□□
□□③③
③――<

□④□④
□□□□
□□□□
④□□□

19
②④③□ |①--②|
□□①⑤ |--③-|
④②□③ |--④-|
□□⑤① |-⑤--|

20
⑧⑩⑦⑨ |①②③④|
④⑭③⑬ |⑤⑥⑦⑧|
⑫⑥⑪⑤ |⑨⑩⑪⑫|
⑯②⑮① |⑬⑭⑮⑯|

21
②④③□ |①--②|
□□①⑤ |--③-|
④②□③ |--④-|
□□⑤① |-⑤--|

22
⑧⑩⑦⑨ |①②③④|
④⑭③⑬ |⑤⑥⑦⑧|
⑫⑥⑪⑤ |⑨⑩⑪⑫|
⑯②⑮① |⑬⑭⑮⑯|

23
④⑫⑬⑤ |①②③④|
⑧⑯③⑨ |⑤⑥⑦⑧|
⑩⑥⑦⑪ |⑨⑩⑪⑫|
⑭②⑮① |⑬⑭⑮⑯|

24
④⑫⑬⑤ |①②③④|
⑧⑯③⑨ |⑤⑥⑦⑧|
⑩⑥⑦⑪ |⑨⑩⑪⑫|
⑭②⑮① |⑬⑭⑮⑯|

25
□□□□ |①---|
□□□□ |----|
□□□□ |----|
□①□① |----|

26
□②□② |①---|
④⑨③□ |②---|
①⑤①□ |③④⑤⑥|
⑥□⑦⑧ |⑦-⑧⑨|

27
□①□① |①---|
□□③② |②③-④|
④□□⑤ |⑤--⑥|
□⑥□⑦ |⑦---|

28
□②□① |①-②-|
⑤□□③ |③-④⑤|
⑧□④⑥ |⑥-⑦⑧|
□□⑦□ |⑨---|

□□□□
□□□□
□□□□
>――⑨

29
□□□① |①---|
□□③② |②③-④|
④□□⑤ |⑤--⑥|
□⑥□① |⑦---|

□□□□
□□□□
□□□□
□□□⑦

30
□⑩⑪① |①-②-|
⑤□□③ |③-④⑤|
□④□⑥ |⑥-⑦⑧|
②⑦⑧⑨ |⑨-⑩⑪|

31
□□□① |①---|
⑧□③② |②③-④|
□④□⑤ |⑤--⑥|
⑥□□⑦ |⑦-⑧-|

32
②□□① |①-②-|
□□□□ |③---|
□□□□ |④---|
□□□□ |⑤---|

□∨□∨
□③□③
□□□□
□□□□

□□□□
□④□④
□④>④
□∧□□

□□□□
□∨□∨
□|□|
□⑤□⑤

□□□□
□□□□
□⑤□⑤
□□□□

33
②□②③ |①--②|
□④③④ |--③-|
□□①□ |--④-|
⑤①⑤① |--⑤-|

34
□②□⑤ |①--②|
②④⑤□ |--③-|
①①④□ |④-⑤-|
□③□③ |⑥---|

□□□□
□□□□
□⑥□⑥
□□⑥□

35
⑦□⑥□ |①---|
⑤□□④ |②③-④|
②□□□ |⑤--⑥|
①③□□ |⑦---|

36
⑯⑮⑭⑬ |①②③④|
⑫⑪⑩⑨ |⑤⑥⑦⑧|
⑧⑦⑥⑤ |⑨⑩⑪⑫|
①②③④ |⑬⑭⑮⑯|

37
⑦□⑥□ |①---|
⑤□□④ |②③-④|
②□□□ |⑤--⑥|
①③□□ |⑦---|

38
⑫⑪⑩⑨ |①②③④|
⑬⑭⑮⑯ |⑤⑥⑦⑧|
⑧⑦⑥⑤ |⑨⑩⑪⑫|
①②③④ |⑬⑭⑮⑯|

39
⑮⑦⑥⑫ |①②③④|
⑨⑬⑯⑭ |⑤⑥⑦⑧|
⑤③⑧② |⑨⑩⑪⑫|
①⑪④⑩ |⑬⑭⑮⑯|

40
⑮⑦⑥⑫ |①②③④|
⑨⑬⑯⑭ |⑤⑥⑦⑧|
⑤③⑧② |⑨⑩⑪⑫|
①⑪④⑩ |⑬⑭⑮⑯|

41
⑤□□□ |①---|
□④□□ |②---|
□②□① |③-④-|
□③□□ |⑤---|

42
□①□□ |①---|
①□②□ |②---|
□②□□ |③---|
①――< |④-⑤⑥|

□□□□
□⑥□□
□□⑤③
④□③④

43
□□□① |①-②③|
□⑪⑦③ |-④⑤-|
⑥②⑩⑤ |⑥⑦-⑧|
⑨④□⑧ |-⑨⑩⑪|

44
□□□① |①-②③|
□⑪⑦③ |-④⑤-|
⑥②⑩⑤ |⑥⑦-⑧|
⑨④⑧□ |-⑨⑩⑪|

45
⑦⑦①① |①-②③|
⑦⑫⑥① |-④⑤⑥|
⑨⑤⑪③ |⑦-⑧⑨|
⑩②⑧④ |-⑩⑪⑫|

46
□□②① |①-②③|
④⑫⑦③ |④⑤⑥-|
⑧□⑪⑤ |⑦⑧-⑨|
⑩⑥⑨□ |⑩-⑪⑫|

47
□□□① |①-②③|
□⑪⑦③ |-④⑤-|
⑥②⑩⑤ |⑥⑦-⑧|
⑨④□⑧ |-⑨⑩⑪|

48
□□□① |①-②③|
□⑪⑦③ |-④⑤-|
⑥②⑩⑤ |⑥⑦-⑧|
⑨④⑧□ |-⑨⑩⑪|

49
②⑨①④ |①--②|
③□⑧① |③④⑤⑥|
□⑥□⑤ |⑦-⑧-|
□⑦⑧□ |--⑨-|

50
□□①□ |①---|
□②□① |②---|
□□②□ |③---|
>――① |④-⑤⑥|

□□□□
□□⑥□
③⑤□□
④③□④

51
①□□□ |①-②③|
③⑦⑪□ |-④⑤-|
⑤⑩②⑥ |⑥⑦-⑧|
⑧□④⑨ |-⑨⑩⑪|

52
①□□□ |①-②③|
③⑦⑪□ |-④⑤-|
⑤⑩②⑥ |⑥⑦-⑧|
□⑧④⑨ |-⑨⑩⑪|

53
①①⑦⑦ |①-②③|
①⑥⑫⑦ |-④⑤⑥|
③⑪⑤⑨ |⑦-⑧⑨|
④⑧②⑩ |-⑩⑪⑫|

54
①②□□ |①-②③|
③⑦⑫④ |④⑤⑥-|
⑤⑪□⑧ |⑦⑧-⑨|
□⑨⑥⑩ |⑩-⑪⑫|

55
①□□□ |①-②③|
③⑦⑪□ |-④⑤-|
⑤⑩②⑥ |⑥⑦-⑧|
⑧□④⑨ |-⑨⑩⑪|

56
①□□□ |①-②③|
③⑦⑪□ |-④⑤-|
⑤⑩②⑥ |⑥⑦-⑧|
□⑧④⑨ |-⑨⑩⑪|

57
①①⑦⑦ |①-②③|
①⑥⑫⑦ |-④⑤⑥|
③⑪⑤⑨ |⑦-⑧⑨|
④⑧②⑩ |-⑩⑪⑫|

58
①②□□ |①-②③|
③□□④ |④⑤⑥-|
⑤□□□ |----|
□□⑥□ |----|

59
□□②② |①---|
□□④□ |②---|
□①□③ |③-④-|
①□□□ |⑤-⑥-|

□□□□
⑥□□□
□⑤□□
□□□□

60
④□⑥□ |①-②-|
□□□□ |③---|
□⑤③⑦ |④-⑤-|
②□①□ |⑥-⑦-|

61
⑯⑮⑭⑬ |①②③④|
⑧⑦⑥⑤ |⑤⑥⑦⑧|
⑨⑩⑪⑫ |⑨⑩⑪⑫|
①②③④ |⑬⑭⑮⑯|

62
□⑩⑪⑦ |①②-③|
⑧⑥③④ |④-⑤⑥|
⑤□⑨□ |⑦⑧⑨⑩|
①②□□ |⑪⑫⑬⑭|

□□□□
□□□□
□⑭□⑬
⑫□□□

63
②□③□ |①---|
□④□□ |②---|
②□⑤□ |③-④-|
□⑥①① |⑤-⑥-|

64
□□□⑦ |①-②-|
⑥□③① |③---|
□□□⑤ |④-⑤-|
④□□② |⑥-⑦-|

65
①□□□ |①---|
□□④□ |②---|
□□②□ |③-④-|
□□③□ |⑤---|

>――⑤
□□□□
□□□□
□□□□

66
□□□① |①---|
□□□□ |②---|
>――① |③---|
□□□□ |④---|

□□□□
>――②
□□□②
□□□□

□□□□
□□□③
③③□□
>――③

④□④□
□□□□
□□□□
□□□④

67
□□⑤① |①--②|
④②□③ |--③-|
□□①⑤ |--④-|
②④③□ |-⑤--|

68
⑯②⑮① |①②③④|
⑫⑥⑪⑤ |⑤⑥⑦⑧|
④⑭③⑬ |⑨⑩⑪⑫|
⑧⑩⑦⑨ |⑬⑭⑮⑯|

69
□□⑤① |①--②|
④②□③ |--③-|
□□①⑤ |--④-|
②④③□ |-⑤--|

70
⑯②⑮① |①②③④|
⑫⑥⑪⑤ |⑤⑥⑦⑧|
④⑭③⑬ |⑨⑩⑪⑫|
⑧⑩⑦⑨ |⑬⑭⑮⑯|

71
⑭②⑮① |①②③④|
⑩⑥⑦⑪ |⑤⑥⑦⑧|
⑧⑯③⑨ |⑨⑩⑪⑫|
④⑫⑬⑤ |⑬⑭⑮⑯|

72
⑭②⑮① |①②③④|
⑩⑥⑦⑪ |⑤⑥⑦⑧|
⑧⑯③⑨ |⑨⑩⑪⑫|
④⑫⑬⑤ |⑬⑭⑮⑯|

73
□①□① |①---|
□□□□ |----|
□□□□ |----|
□□□□ |----|

74
②□②□ |①---|
④③③□ |②---|
□⑤□□ |③④⑤⑥|
⑥①□① |⑦-⑧⑨|

□□□□
□□□□
□□⑨□
□⑦⑦⑧

75
□①□① |①---|
□□□□ |----|
□□□□ |----|
□□□□ |----|
最終更新:2023年11月01日 22:01