アットウィキロゴ
BPM:199
1
①□□① |①---|
□□②□ |----|
□③□□ |--②-|
□□④□ |③-④-|
2
□□□□ |①---|
□□□② |----|
①□□□ |②---|
□□□□ |----|
3
①□□□ |①---|
②③④□ |--②③|
□⑤□□ |④---⑤-|
□□⑥□ |--⑥---|
4
①□□① |①---|
□□□□ |----|
□□□□ |----|
□□□□ |----|
5
□□□□ |----|
□□□□ |----|
□□□□ |----|
□□□□ |----|
6
□□□□ |①---|
□□□② |②---|
□□□□
①□□□
7
①□□① |①-②-|
□□④□ |③-④-|
□③□□ |----|
□□②□ |----|
8
①□□① |①-②-|
□④□□ |③-④-|
□□③□ |----|
□②□□ |----|
9
□②□□ |①---|
□④□□ |--②-|
□□□□ |--③-|
①□③① |--④-|
10
②□□① |①-②-|
④□□③ |③-④-|
□□□□ |⑤---|
□□⑤⑤ |----|
11
①□□① |①---|
②□④② |②---|
③□□□ |③---|
④□③⑤ |④-⑤-|
12
□①⑤② |①-②-|
□③□□ |③-④-|
□⑤④⑥ |⑤---|
□⑥□□ |⑥---|
13
①□□① |①---|
②□④② |②---|
③□□□ |③---|
④□③⑤ |④-⑤-|
14
①□□② |①②-③|
⑤□□⑥ |④-⑤⑥|
□③④□ |-⑦⑧-|
⑨⑦⑧□ |⑨---|
15
①②①□ |①-②-|
③④③□ |③-④-|
⑤⑥⑤□ |⑤-⑥-|
⑦⑧⑦□ |⑦-⑧-|
16
□①②① |①-②-|
□③④③ |③-④-|
□⑤⑥⑤ |⑤-⑥-|
□⑦⑧⑦ |⑦-⑧-|
17
①□□② |①-②-|
⑪⑦□⑧ |③-④-|
③⑤⑥④ |⑤⑥⑦⑧|
□⑨⑫⑩ |⑨⑩⑪⑫|
18
⑤④③② |①--②③④|
⑩⑦⑦⑩ |⑤-⑥-|
□□⑨⑥ |⑦-⑧⑨|
①⑧□□ |⑩---|
19
②□□① |①---|
□□②□ |--②-|
□①□□ |----|
②□□① |----|
20
④②①③ |①---|
①□□② |--②-|
③□□④ |--③-|
□②①□ |④---|
21
□⑥⑦□ |①---|
⑩②③⑪ |②③④⑤|
⑧⑫⑬⑨ |⑥⑦⑧⑨|
①④⑤① |⑩⑪⑫⑬|
22
①⑨⑩② |①②③④|
⑬⑤⑥⑭ |⑤⑥⑦⑧|
⑪⑮⑯⑫ |⑨⑩⑪⑫|
③⑦⑧④ |⑬⑭⑮⑯|
23
①⑧⑬⑤ |①-②③|
⑫④⑨□ |④⑤⑥⑦|
⑩⑭⑮⑪ |⑧⑨⑩⑪|
②⑥⑦③ |⑫⑬⑭⑮|
24
①⑨⑭⑥ |①②③④|
⑬⑤⑩② |⑤⑥⑦⑧|
⑪⑮⑯⑫ |⑨⑩⑪⑫|
③⑦⑧④ |⑬⑭⑮⑯|
25
①⑦□⑥ |①---|
⑪③⑩② |②③④⑤|
⑨⑬⑫□ |⑥⑦⑧⑨|
□⑤④⑧ |⑩⑪⑫⑬|
26
②⑩①⑨ |①②③④|
⑭⑥⑬⑤ |⑤⑥⑦⑧|
⑫⑯⑮③ |⑨⑩⑪⑫|
④⑧⑦⑪ |⑬⑭⑮⑯|
27
□□①□ |①---|
□□②□ |----|
③□□① |--②-|
□□④□ |③-④-|
28
□③③□ |①---|
□□□□ |②---|
□□□② |③---|
①□□□ |----|
29
□⑥⑦③ |①---|
⑧□⑨□ |②③④⑤|
□②⑤□ |⑥⑦⑧⑨|
④①①□ |⑩⑪⑫⑬|

□□□□
□⑩□⑪
□□□□
□⑫⑬□
30
①⑪⑩⑥ |①②③④|
⑨⑮⑫⑭ |⑤⑥⑦⑧|
③⑤⑧② |⑨⑩⑪⑫|
⑦⑬⑯④ |⑬⑭⑮⑯|
30
①□⑫⑦ |①-②③|
⑥⑪⑨□ |-④⑤⑥|
①③⑤⑦ |⑦-⑧⑨|
④⑧⑩② |-⑩⑪⑫|
31
①②□⑤ |①-②---|
④□□③ |③---④-|
①②□⑤ |--⑤---|
④□□③ |--⑥⑦|

⑥□□□
□□⑦□
□□□□
□□□□
32
□①④□ |①---|
④□□② |②---|
①□□③ |③---|
□③②□ |④---|
33
②④⑤③ |①-②-|
□□①□ |-③--|
□①□□ |④--⑤|
②④⑤③ |----|
34
□□□□ |①---|
①□②① |----|
□③□□ |--②-|
□□□④ |③-④-|
35
□③④□ |①---|
③□□④ |②---|
①□□② |③---|
□①②□ |④---|
36
□⑥□④ |①--②|
□⑤②⑦ |③-④-|
□①⑤□ |⑤-⑥⑦|
□③□① |----|
37
□⑥①⑦ |①--②|
①⑤□□ |③-④-|
□□⑤② |⑤-⑥⑦|
③□④□ |----|
38
□⑥⑤⑨ |①-②-|
⑩④①□ |③-④-|
□②□⑪ |⑤⑥⑦⑧|
⑧⑫③⑦ |⑨⑩⑪⑫|
39
④⑤⑥□ |①---|
□③②① |②---|
③②①□ |③-④⑤|
□□□□ |⑥---|
40
□⑩⑩□ |①---|
⑨⑧④⑤ |②③④⑤--|
⑥⑦③② |⑥⑦⑧⑨--|
□①①□ |--⑩-|
41
⑩□□⑨ |---①②③|
□□□□ |④--⑤⑥⑦|
⑤⑥②① |⑧-⑨-|
⑧⑦③④ |--⑩---|
42
⑩⑩□□ |①---|
□①①□ |②③④⑤--|
⑨⑧④⑤ |⑥⑦⑧⑨--|
⑥⑦③② |--⑩-|
43
□□②① |---①②③|
⑤⑥③④ |④--⑤⑥⑦|
⑧⑦⑩⑨ |⑧--⑨⑩⑪|
□□⑪⑫ |⑫---|
44
⑤④⑧⑨ |①---|
②③⑦⑥ |②③④⑤--|
□□□□ |⑥⑦⑧⑨--|
①①□□ |--⑩-|

□□□□
□□□□
□□□□
□⑩⑩□
45
④③⑦⑧ |---①②③|
①②⑥⑤ |④--⑤⑥⑦|
□□⑭⑬ |⑧---|
⑨⑩⑪⑫ |⑨⑩⑪⑫⑬⑭|
46
□⑧⑦⑥ |①---|
②③④⑤ |②③④⑤⑥⑦|
□①⑭⑬ |⑧---|
⑨⑩⑪⑫ |⑨⑩⑪⑫⑬⑭|
47
②⑥⑦⑤ |①-②③|
⑥③□⑦ |④-⑤-|
④①□□ |⑥-⑦-|
□⑧⑧□ |⑧---|
48
□□□□ |①---|
□□□□ |----|
□□□□ |----|
□□□① |----|
49
□□□□ |----|
□□□□ |----|
□□□□ |----|
□□□□ |----|
50
①□④② |①---|
□□□□ |②---|
□□□□ |③---|
□③□⑤ |④-⑤-|
51
①③④② |①---|
⑤□□⑤ |②---|
①□□② |③-④-|
□③④□ |⑤---|
52
①③□② |①---|
□□④⑥ |②---|
□⑤□⑥ |③--④|
①③□② |⑤-⑥-|
53
①□②③ |①---|
□④⑤⑦ |②---|
□⑥□⑦ |③-④⑤|
①□②③ |⑥-⑦-|
54
①②③④ |①-②-|
□□⑤⑦ |③---|
□⑥□⑦ |④--⑤|
①②③④ |⑥-⑦-|
55
①③②□ |①---|
⑦⑤④□ |②---|
⑦□⑥□ |③-④⑤|
①③②□ |⑥-⑦-|
56
③□②① |--①-|
□□④⑥ |②---|
□⑤□⑥ |③--④|
③□②① |⑤-⑥-|
57
⑨③④□ |①-②-|
□⑦⑧⑩ |③-④-|
□⑪⑥⑫ |⑤⑥⑦⑧|
⑤①②□ |⑨⑩⑪⑫|
58
□□□□ |①---|
□□②□ |----|
□③□□ |--②-|
□①④□ |③-④-|
59
□□□□ |①---|
□□□② |----|
①□□□ |②---|
□□□□ |----|
60
①□□□ |①---|
②③④□ |--②③|
□⑤□□ |④---⑤-|
□□⑥□ |--⑥---|
61
①□□① |①---|
□□□③ |----|
□□□□ |②---|
②□□□ |③---|
62
②①①④ |①---|
□□⑤□ |②-③-|
□⑥□□ |④-⑤-|
□□③⑦ |⑥-⑦-|
63
□⑤□□ |①-②-|
①□□④ |③-④-|
□□⑥③ |⑤---|
□②□□ |⑥---|
64
⑨□□⑩ |①②③④|
①③⑤⑦ |⑤⑥⑦⑧|
⑪□□□ |⑨--⑩|
②④⑥⑧ |--⑪-|
65
□①①□ |①---|
□□□② |----|
□□□□ |②--③|
③□□④ |--④-|
66
①①□② |①-②-|
③③④□ |③-④-|
⑤⑤□⑥ |⑤-⑥-|
⑦⑦⑧□ |⑦-⑧-|
67
①①□④ |①-②-|
③③□□ |③-④-|
□□②□ |⑤-⑥-|
□□□□ |⑦-⑧-|

□⑧□□
□□⑥□
⑤⑤□□
⑦⑦□□
68
④□⑦⑦ |①-②-|
□②⑤⑤ |③-④-|
⑥□③③ |⑤-⑥-|
□⑧①① |⑦-⑧-|
69
□④□□ |①-②-|
□□□□ |③-④-|
□□③③ |⑤⑥-⑦|
②□①① |⑧-⑨-|

□□⑧□
□⑦⑥□
□⑤□□
□□⑨⑨
70
①④□① |①-②-|
③□⑧③ |③-④-|
⑤□②⑤ |⑤-⑥-|
⑦⑥□⑦ |⑦-⑧-|
71
①□④① |①-②-|
③⑧□③ |③-④-|
⑤②□⑤ |⑤-⑥-|
⑦□⑥⑦ |⑦-⑧-|
72
①③④② |①-②-|
③⑦②⑥ |③-④-|
⑤①⑧④ |⑤-⑥-|
⑦⑤⑥⑧ |⑦-⑧-|
73
①⑤⑥② |①②③④|
⑦⑮④⑫ |⑤⑥⑦⑧|
⑪③⑭⑧ |⑨⑩⑪⑫|
⑬⑨⑩⑯ |⑬⑭⑮⑯|
74
①□□□ |①---|
□□②□ |----|
③□□□ |--②-|
□□④□ |③-④-|
75
②⑦□② |①-②-|
③□□③ |③-④⑤|
□④⑤⑥ |⑥-⑦-|
①⑧⑧① |⑧---|
76
□□□⑤ |①②③④|
④⑧③□ |⑤-⑥⑦|
②□⑦□ |⑧-⑨⑩|
⑥□□① |⑪-⑫⑬|

□□□□
□□□⑪
□⑩□⑬
□⑫⑨□
77
①⑨□⑨ |①-②③|
⑦□④□ |④-⑤⑥|
③⑧⑥□ |⑦-⑧-|
⑤□□② |⑨---|
78
□□④□ |①-②③|
□①□□ |④-⑤-|
③□□□ |⑥-⑦⑧|
□⑤□② |⑨-⑩-|

□⑨□□
□□□⑥
□□□⑧
⑦□⑩□
79
①□⑥④ |①-②③|
⑨③□⑨ |④-⑤-|
⑧□②⑧ |⑥-⑦-|
⑦⑤□□ |⑧-⑨-|
80
①④⑤④ |①-②-|
⑤③②□ |③---|
□①⑦⑥ |④---|
□③□② |⑤-⑥⑦|
81
④□⑤□ |①---|
□④□③ |②-③-|
②①□□ |④--⑤|
⑤②③□ |--⑥⑦|

□□□□
□□□□
□⑥⑦□
□□□□
82
⑥⑦□□ |①---|
②□③⑤ |②-③-|
□□□① |④---|
□□□④ |⑤-⑥⑦|
83
⑨□①⑧ |①-②-|
②⑪□⑩ |③-④⑤|
□⑥⑤④ |⑥-⑦-|
⑦□③□ |⑧⑨⑩⑪|
84
□⑦□□ |①-②③|
⑤□③□ |④-⑤⑥|
④□⑥□ |⑦-⑧⑨|
□②□① |⑩-⑪⑫|

□□⑧□
□⑫□⑩
□⑨□⑪
□□□□
85
□⑦□□ |①-②③|
⑤□③⑨ |④-⑤⑥|
④⑧⑥□ |⑦---|
□②①□ |⑧-⑨-|
86
①⑦④□ |①-②③|
□③⑥□ |④-⑤⑥|
⑤□□□ |⑦-⑧⑨|
□□□② |⑩-⑪⑫|

□□□⑩
⑨□□⑫
□□⑧□
□⑪□□
87
①⑦④⑧ |①-②③|
□⑤⑥⑨ |④-⑤⑥|
⑦③⑧□ |⑦--⑧|
□□②□ |--⑨-|
88
①③②④ |①---|
□□⑤□ |②---|
□□□⑥ |③---|
③①④② |④-⑤⑥|
89
①□③□ |①-②-|
□②□④ |③-④-|
①□③□ |⑤-⑥-|
□②□④ |⑦-⑧⑨|

⑧⑥□⑨
⑤□⑦□
□⑥□□
⑤□⑦□
90
□□□□ |①---|
□③□④ |②---|
①□②□ |③---|
③①④② |④-⑤⑥|

□□□⑥
□□□□
□□□□
□⑤□□
91
③④⑤□ |①②③-|
□□□□ |④-⑤⑥|
①□⑥② |⑦-⑧-|
⑦□□⑧ |⑨⑩⑪⑫⑬-⑭-|

□□□□
⑨⑩⑪⑫
⑬□□⑭
□□□□
92
②④②④ |①---|
□□□⑥ |②-③-|
□⑤③⑦ |--④-|
□①□□ |⑤-⑥⑦|
93
□⑥□⑥ |①-②③|
②⑤□□ |④-⑤-|
③□□□ |⑥---|
④①④① |⑦-⑧⑨|

□□⑦□
□□⑨⑦
□⑧□□
□□□□
94
①③⑦⑥ |①---|
②□⑨□ |②-③④|
⑤□④□ |⑤⑥-⑦|
⑧⑧□□ |⑧-⑨-|
95
①⑦□□ |①---|
②③□④ |②-③-|
④□⑤□ |④--⑤|
⑥⑧□① |⑥-⑦⑧|
96
①⑧⑨③ |①-②-|
⑤□①□ |③-④-|
□②⑪④ |⑤-⑥⑦|
⑥⑩□⑦ |⑧⑨⑩⑪|
97
④⑦⑦⑥ |①-②-|
□①□② |③-④-|
□□□⑤ |⑤-⑥-|
□□③□ |⑦---|
98
□□□□ |①②③-④⑤⑥-|
①④⑦⑩ |⑦⑧⑨-⑩⑪⑫-|
②⑤⑧⑪ |⑬-⑭⑮|
③⑥⑨⑫ |-⑯⑰⑱|

⑬⑮⑯⑭
⑰□□□
□□□□
⑱□□□
99
⑨⑪□⑬ |①--②③④|
⑫①□⑤ |⑤--⑥⑦⑧|
②③④⑩ |⑨-⑩⑪|
□⑧⑦⑥ |-⑫⑬-|
100
□□□□ |----|
□□□□ |①---|
□□□□ |----|
①□□① |----|
101
⑪⑮⑯⑫ |①-②-③-④--⑤--|
⑨⑧⑦⑥ |⑥-⑦-⑧-⑨--⑩--|
①②③④ |⑪-⑫-⑬-|
⑤⑬⑭⑩ |⑭-⑮-⑯-|
102
□□□□ |①---|
□□□□ |----|
①□□① |----|
□□□□ |----|
最終更新:2023年11月01日 22:02