アットウィキロゴ
PON☆PON☆PARADE / キノシタ
BPM:194
Notes:838

1
①⑤①⑤ |①--②|
④④⑧⑧ |③-④-|
⑥□□② |⑤--⑥|
□⑦③□ |⑦-⑧-|

2
①⑤①⑤ |①--②|
④④□□ |③-④-|
⑥□⑥② |⑤-⑥-|
□□③□ |--⑦-|

⑦□⑦□
□□□□
□□□□
□□□□

3
□④□④ |--①-|
⑤□⑤③ |②-③-|
□②□□ |④---|
□□□① |⑤---|

4
□□□□ |①---|
②□□□ |----|
□□□□ |----|
①①①① |②---|

5
□①①③ |①---|
④□□□ |②---|
□□□⑤ |③-④-|
⑥②②□ |⑤-⑥-|

6
⑦①①⑥ |①-②③|
□⑦⑥□ |④-⑤-|
②③④□ |⑥-⑦-|
□⑤□□ |--⑧-|

□⑧⑧□
⑧□□⑧
□□□□
□□□□

7
⑧□□⑤ |--①-|
⑧⑥③□ |②-③-|
□②⑦□ |④-⑤⑥|
①④④□ |⑦-⑧-|

8
□④④□ |①-②-|
□⑦③③ |③-④-|
②②⑥① |--⑤⑥|
□⑤□① |⑦-⑧-|

□□□⑧
□□□□
□□□⑧
□□□□

9
③□⑧⑧ |--①-|
□□④② |②-③-|
□⑤□□ |④⑤⑥-|
⑦⑦⑥① |⑦-⑧-|

10
③⑧⑦⑥ |①-②-|
①①□④ |③-④-|
③□②② |--⑤-|
⑤□⑤④ |⑥⑦⑧-|

11
⑨□□□ |--①②|
⑤③⑥④ |③-④-|
⑨⑦②④ |⑤-⑥⑦|
⑤①⑧□ |⑧-⑨-|

12
⑧⑧④□ |①-②-|
□③⑦③ |③-④-|
□⑥②□ |--⑤⑥|
□①⑤① |⑦-⑧-|

13
⑧⑧④④ |--①②|
□③□⑦ |③-④-|
⑥□②□ |--⑤⑥|
□①□⑤ |⑦-⑧-|

14
□□④④ |--①②|
③⑦□⑦ |③-④-|
⑥□⑥② |--⑤-|
①⑤□⑤ |⑥-⑦-|

15
①②□□ |--①-|
□□③□ |②-③-|
□④□□ |④-⑤-|
□⑦⑤⑥ |⑥-⑦-|

16
□□②□ |①-②-|
①④④⑦ |③-④-|
□④④③ |--⑤-|
□⑥⑤□ |⑥-⑦-|

17
①②□③ |①--②|
⑤□④□ |③--④|
①⑥□③ |⑤-⑥-|
⑤□□⑦ |⑦-⑧-|

□□⑧□
□□□⑧
⑧□□□
□⑧□□

18
①①③③ |----|
①①③③ |--①-|
④④②② |--②-|
④④②② |③-④-|

19
□①□□ |----|
①③③□ |①---|
□□□□ |②-③-|
④□②② |--④-|

20
⑤②⑤① |①-②-|
□⑤□⑤ |③-④-|
⑥④⑥③ |⑤-⑥-|
□⑥□⑥ |----|

21
⑤②③② |①-②-|
□□□④ |--③-|
⑤□□⑥ |④-⑤-|
①□①④ |--⑥-|

22
□①□③ |①---|
①①①③ |②-③-|
□①□□ |--④-|
④②⑤□ |⑤-⑥-|

□□□□
□⑥□□
□□□□
□□□□

23
①②①② |①---|
③⑤③⑤ |②---|
②①②① |③-④-|
□④□④ |--⑤-|

24
□□②⑥ |--①-|
⑤□⑥□ |②-③-|
①⑤□④ |④-⑤-|
③□④□ |⑥---|

25
④①④⑥ |--①-|
□□□② |②-③-|
□⑤□⑤ |④-⑤-|
□③□□ |--⑥-|

26
□□□□ |①-②-|
④③⑦④ |③-④-|
①□②□ |--⑤-|
⑥④④⑤ |⑥-⑦-|

27
②①②① |①---|
⑤③⑤③ |②---|
①②①② |③-④-|
④□④□ |--⑤-|

28
⑥②□□ |--①-|
□⑥□⑤ |②-③-|
④□⑤① |④-⑤-|
□④□③ |⑥---|

29
□□□⑤ |--①-|
③□①□ |②-③-|
⑥⑥④□ |④-⑤-|
⑥⑥□② |⑥---|

30
⑥①①⑤ |①---|
②①②① |②---|
□□□□ |③-④-|
□④③③ |⑤-⑥-|

31
□③⑤□ |①---|
②①②① |②---|
①②①② |③-④-|
④□□⑥ |⑤-⑥-|

32
②③④⑤ |①-②-|
□□□□ |--③-|
□□□□ |--④-|
□①①□ |--⑤-|

33
③□□⑤ |①---|
①②①② |②---|
②①②① |③-④-|
□④⑥□ |⑤-⑥-|

34
⑥③③⑤ |①-②-|
①□□② |--③-|
□□□□ |--④-|
①④□② |⑤-⑥-|

35
□⑤③□ |①---|
②①②① |②---|
①②①② |③-④-|
⑥□□④ |⑤-⑥-|

36
⑤④③② |①-②-|
□□□□ |--③-|
□□□□ |--④-|
□①①□ |--⑤-|

37
⑦□□⑥ |①-②-|
①②③④ |③-④-|
④□□① |--⑤-|
⑤□④□ |⑥-⑦-|

38
□④□□ |①-②-|
①□□④ |③-④-|
④③②① |--⑤-|
⑤□□⑥ |⑥---|

39
①⑤①⑤ |①--②|
④④⑧⑧ |③-④-|
⑥□□② |⑤--⑥|
□⑦③□ |⑦-⑧-|

40
①⑤①⑤ |①--②|
④④□□ |③-④-|
⑥□⑥② |⑤-⑥-|
□□③□ |--⑦-|

⑦□⑦□
□□□□
□□□□
□□□□

41
□□□⑥ |--①-|
③⑦□② |②-③-|
□□④□ |④-⑤-|
⑤①□□ |⑥-⑦-|

42
□④④□ |--①-|
③□□③ |②-③-|
②□□② |④---|
□①①⑤ |⑤---|

43
①□□② |①---|
□①②□ |----|
□①②□ |②---|
□□□□ |----|

44
④③③④ |①---|
□③③□ |②---|
□③□□ |③---|
①□□② |--④-|

45
□□□□ |--①②|
①⑦□④ |③-④-|
□□②□ |⑤---|
③⑤⑤⑥ |⑥-⑦-|

46
⑧⑥□① |①--②③④|
⑥⑩□⑨ |⑤-⑥-|
②③④⑤ |--⑦⑧|
⑫□⑪⑦ |⑨⑩⑪⑫|

47
□③⑩① |①-②-|
⑨⑧⑦⑥ |③-④-|
②⑤□④ |⑤--⑥⑦⑧|
□□□□ |⑨-⑩-|

48
④□□③ |①---|
□□□□ |②-③-|
②④③② |--④-|
③①①④ |--⑤-|

□⑤⑤□
□□□□
□□□□
□⑤⑤□

49
□⑩⑩⑥ |--①②|
①⑤②⑦ |③-④-|
⑤□④⑧ |⑤--⑥⑦⑧|
③□□⑨ |⑨-⑩-|

50
⑦□⑩□ |①-②-|
①⑤④⑧ |③-④-|
□□⑥□ |--⑤⑥|
③⑨②□ |⑦⑧⑨⑩|

51
⑬⑨⑭② |①②③④|
⑤⑪⑥⑫ |⑤⑥⑦⑧|
⑦①⑩⑯ |⑨⑩⑪⑫|
③⑮④⑧ |⑬⑭⑮⑯|

52
④④④④ |①---|
③③③□ |②---|
②②□□ |③---|
①□□□ |④---|

53
□⑤⑤□ |①---|
④□□③ |②---|
□②②□ |③-④-|
□①①□ |--⑤-|

54
□□□□ |--①-|
□②⑤□ |②-③-|
①④③⑥ |④-⑤-|
□□□□ |⑥---|

55
□□①⑥ |--①-|
②□□④ |②-③-|
□□□□ |④-⑤-|
⑤③□□ |--⑥-|

56
⑥①□□ |①-②-|
□□④⑦ |③-④-|
③□②□ |--⑤-|
□□⑤④ |⑥-⑦-|

57
⑤⑤①③ |①-②-|
②②④□ |③---|
④④③① |④-⑤-|
①①□⑤ |--⑥-|

□□⑥□
□□□⑥
□□□□
□□□□

58
⑤⑦⑦③ |①-②-|
①③⑥□ |③-④-|
⑦⑤④□ |⑤-⑥-|
③①②⑤ |⑦---|

59
□□⑥□ |①-②-|
⑤③□② |③-④-|
□⑦⑦□ |⑤-⑥-|
□①□④ |--⑦-|

60
②⑤⑤③ |--①-|
④⑤□⑤ |②-③-|
⑤⑤□④ |④---|
⑤⑤①□ |⑤---|

61
①④④① |----|
□□②□ |①---|
□□□□ |②-③-|
③□□③ |--④-|

62
□⑦□⑥ |--①-|
□⑤⑤② |②-③-|
□③③□ |④-⑤-|
□①①④ |⑥-⑦-|

63
①⑥①⑥ |--①-|
□□④□ |②-③-|
□□□② |④-⑤-|
③⑤③⑤ |--⑥-|

64
②⑦②⑦ |①-②-|
④□④① |③-④-|
□□⑥□ |--⑤-|
□⑤③⑤ |⑥-⑦-|

65
⑦□①⑦ |①-②-|
□④⑤③ |③-④-|
□②□① |⑤-⑥-|
⑥□③⑥ |--⑦-|

66
□⑦②⑥ |--①-|
③□□③ |②-③-|
①⑤⑤① |④-⑤-|
□□④□ |⑥-⑦-|

67
⑤□①⑤ |--①-|
③①□□ |②-③-|
⑥⑥④② |④-⑤-|
⑥⑥③□ |⑥---|

68
⑥①①⑤ |①---|
②①②① |②---|
□□□□ |③-④-|
□④③③ |⑤-⑥-|

69
□③⑤□ |①---|
②①②① |②---|
①②①② |③-④-|
④□□⑥ |⑤-⑥-|

70
②④⑥⑧ |①-②-|
□□□□ |③-④-|
□□③□ |⑤-⑥-|
⑤①①⑦ |⑦-⑧-|

71
③□□⑤ |①---|
①②①② |②---|
②①②① |③-④-|
□④⑥□ |⑤-⑥-|

72
⑥③③⑤ |①-②-|
①□□② |--③-|
□①②□ |--④-|
①④□② |⑤-⑥-|

73
□⑤③□ |①---|
②①②① |②---|
①②①② |③-④-|
⑥□□④ |⑤-⑥-|

74
⑧⑥④② |①-②-|
□□□□ |③-④-|
□③□□ |⑤-⑥-|
⑦①①⑤ |⑦-⑧-|

75
⑦□□⑥ |①-②-|
①②③④ |③-④-|
④□□① |--⑤-|
⑤①④□ |⑥-⑦-|

76
□④①□ |①-②-|
①□□④ |③-④-|
④③②① |--⑤-|
⑤⑦□⑥ |⑥-⑦-|

77
①⑤①⑤ |①--②|
④④⑧⑧ |③-④-|
⑥□□② |⑤--⑥|
□⑦③□ |⑦-⑧-|

78
①⑤①⑤ |①--②|
④④□□ |③-④-|
⑥□⑥② |⑤-⑥-|
□□③□ |--⑦-|

⑦□⑦□
□□□□
□□□□
□□□□

79
□⑤□⑥ |--①-|
③⑦④② |②-③-|
□⑤⑥□ |④-⑤-|
⑦①□④ |⑥-⑦-|

80
□④④□ |--①-|
③⑤⑤③ |②-③-|
②⑤⑤② |④---|
□①①□ |⑤---|
最終更新:2023年11月01日 22:02