アットウィキロゴ
ネハン / Somari
BPM:130~160
Notes:833

1
□⑤④③ |(160)①--②|
□①①□ |③④⑤-|
②⑨⑧□ |⑥⑦⑧⑨|
□⑦⑥□ |⑩-⑪-|

⑪□□□
□□⑩□
□□□□
□□□□

2
□□④□ |①---|
②③□□ |--②③|
□□⑥⑤ |④---|
①□□① |--⑤⑥|

3
③□□④ |①-②-|
⑤⑤□⑥ |③-④-|
⑦⑦□⑧ |⑤-⑥-|
□①②□ |⑦-⑧-|

4
□⑥④□ |①---|
⑤③⑥⑤ |②③④-|
⑥□②□ |--⑤-|
□①①⑥ |--⑥-|

5
□□⑤⑤ |①②③④|
⑥――< |⑤---|
□④③□ |⑥---|
□②①□ |⑦---|

□□□□
⑦□□□
>――⑦
□□□□

6
①①□③ |①---|
□⑥□⑤ |②-③-|
□②□① |④-⑤-|
④□⑦□ |⑥-⑦-|

7
①∨□□ |①-②-|
□|□□ |③---|
□③②□ |④-⑤-|
□□□□ |⑥-⑦-|

□□□□
□□⑤④
□④⑦⑥
□□□□

8
□④□□ |①-②-|
⑥□⑤③ |③-④-|
□□□⑦ |⑤-⑥-|
②⑧□① |⑦-⑧-|

9
□□∨① |①-②-|
□□|□ |③---|
□②③□ |④-⑤-|
□□□□ |⑥-⑦-|

④⑤□□
⑥⑦□□
□□④□
□□□□

10
□□□□ |①---|
□□□□ |②-③-|
①□⑤④ |④-⑤-|
□□③② |⑥-⑦-|

□⑥□⑥
□□□|
□□□|
□□□∧

□□□⑦
□□□□
□□□□
□□□□

11
□□□□ |①-②-|
□□□□ |③-④-|
③④□□ |⑤-⑥-|
①②□□ |⑦-⑧-|

⑤□⑤□
|□□□
|□□□
∧□□□

⑥□□⑥
□□⑦□
□□□⑧
□□□□

12
□□□□ |①---|
□□□□ |--②-|
②□□□ |③---|
④③①□ |--④-|

13
□□⑤⑦ |①-②③|
⑧④③□ |-④⑤-|
⑥②⑨⑥ |⑥-⑦-|
□□□① |⑧-⑨-|

14
①①□□ |①--②|
⑥②□□ |--③-|
□③□④ |④---|
□□⑤④ |⑤-⑥-|

15
□□①① |①--②|
□□②□ |--③-|
④□③□ |④---|
④□□□ |⑤-⑥-|

□□⑤□
⑥□□□
□□□□
□□□□

16
□□□□ |①--②|
□□□□ |--③-|
□□②□ |----|
□□①① |④-⑤-|

④□□□
□□③□
□□|□
□□∧□

□□□□
□⑤⑤□
□□□□
□□□□

17
□□⑩⑨ |①--②|
③⑧⑦⑥ |--③④|
②⑤④③ |⑤-⑥⑦|
①①□□ |⑧-⑨⑩|

18
□①□⑧ |①-②-|
□|⑥④ |③-④-|
□|③⑦ |⑤-⑥-|
□∧⑤② |⑦-⑧-|

19
□①①□ |①---|
□□|□ |--②③|
②③∧□ |④-⑤⑥|
□□□□ |⑦-⑧-|

⑧□④□
⑤⑥⑦□
□□④□
□□□□

20
⑦①④⑧ |①-②-|
④□□① |③-④-|
④⑧⑦① |⑤-⑥-|
②⑥③⑤ |⑦-⑧-|

21
□□□□ |①---|
□①□① |----|
□□□□ |②---|
①□①□ |③---|

□□□□
②――<
□□□□
□□□□

□□□□
③□□□
>――③
□□□□

22
①①□④ |①--②|
⑤⑤□⑥ |③-④-|
□□②① |⑤-⑥-|
□③□□ |⑦-⑧-|

□⑦□□
□□□□
□□□⑧
□□□□

23
□⑦□④ |①--②|
⑤⑤□⑥ |③-④-|
①①②⑧ |⑤-⑥-|
□③□□ |⑦-⑧-|

24
□⑨⑨④ |①--②|
⑧⑦⑥□ |③-④-|
①①②□ |⑤-⑥⑦|
⑤③□⑤ |⑧-⑨-|

25
⑥□□□ |①--②|
⑥⑨⑤□ |③④⑤-|
①④③① |⑥-⑦⑧|
⑩②⑧⑦ |⑨-⑩⑪|

□□□□
□□□□
□□□□
□⑪□□

26
□□①□ |①---|
③④③④ |②---|
②□□② |③---|
□④③□ |④---|

27
④①②④ |①---|
⑤⑦③⑦ |②--③|
②①②① |④-⑤-|
□□⑥□ |⑥-⑦-|

28
⑦⑥□⑥ |①-②③|
⑤□⑥□ |④-⑤-|
②③④□ |⑥---|
⑤①□① |⑦-⑧⑨|

□□□□
□□□□
□□□□
□□⑨⑧

29
□⑤②□ |①--②|
⑤③⑥□ |③-④-|
□⑥□⑦ |⑤-⑥-|
④①⑦□ |⑦---|

30
②□②□ |①---|
③□③① |②---|
②□②□ |③---|
□①□③ |④---|

□□□④
□④□□
□□□□
□④□□

31
①□②④ |①---|
④⑦③⑦ |②--③|
⑤①②① |④-⑤-|
②□⑥□ |⑥-⑦-|

32
③⑨③⑨ |①-②-|
□⑧⑦□ |③-④-|
□⑥⑤② |⑤⑥⑦⑧|
④①□① |⑨-⑩-|

□□□□
□□□□
□□□⑩
□□□□

33
①――< |①-②-|
□□□□ |③-④-|
□□□□ |⑤-⑥-|
□□□□ |⑦-⑧⑨|

⑤□①□
□□⑦②
①⑤④⑨
⑧□③⑥

34
⑤⑦⑤⑦ |①-②-|
③①□③ |③-④-|
□⑥⑧□ |⑤-⑥-|
□④②□ |⑦-⑧-|

35
□③②□ |①---|
②①□③ |②---|
③□⑤② |③-④-|
①④□① |⑤-⑥-|

□□□□
□⑥□□
□□□□
□□□□

36
□>―① |①-②-|
□□□□ |③-④-|
□□□□ |⑤---|
□□②□ |⑥-⑦⑧|

⑤―<③
□□④□
□③□□
□□□□

⑥□□□
□□□□
□□⑧⑦
□□□□

37
□□④□ |①---|
③⑤□□ |--②-|
□①□□ |③-④-|
□②⑥□ |⑤-⑥-|

38
□□③□ |①---|
⑤□⑦⑤ |--②-|
①⑥□① |③-④⑤|
□②④□ |--⑥⑦|

39
②①□② |①--②|
□③□□ |--③-|
□□□□ |④---|
④□④□ |⑤-⑥-|

□⑤□□
□□⑥□
⑤□□□
□□□⑥

40
②□⑥□ |①--②|
□⑤□③ |--③-|
□①①② |④-⑤⑥|
③④④□ |--⑦-|

□⑦□⑦
□□□□
⑦□⑦□
□□□□

41
③□④⑥ |--①-|
①□②④ |②-③-|
⑤③⑥② |④-⑤-|
①⑤□□ |⑥-⑦-|

□⑦□□
⑦□□□
□□□□
□□□□

42
□□□□ |(130)①---|
□①①□ |----|
□||□ |②---|
□∧∧□ |③---|

□□□□
□②②□
□□□□
②――<

□□□□
□□□□
>――③
③□□□

43
□□□□ |①---|
①――< |②---|
□□□① |③-④-|
□□□□ |⑤---|

□②②□
②□⑤□
④⑤③⑤
□□⑤□

44
④①①④ |①-②③|
⑦⑥⑨⑦ |④-⑤⑥|
⑩⑧③⑩ |⑦-⑧⑨|
②□□⑤ |⑩-⑪⑫|

□⑪⑪□
□□□□
□□□□
□⑫⑫□

45
③⑩⑩③ |(140)--①②|
⑥⑤⑧⑥ |③-④⑤|
⑨⑦②⑨ |⑥-⑦⑧|
①⑪⑪④ |⑨-⑩⑪|

46
②⑦⑦⑥ |(150)--①-|
③⑥④③ |②-③-|
⑤④②⑤ |④-⑤-|
①□□① |⑥-⑦-|

47
□⑤⑤□ |(160)--①-|
③□③② |②-③-|
④④②□ |--④-|
①①⑥⑥ |⑤-⑥-|

48
①□□① |①---|
②⑤④③ |②-③④|
⑤⑥⑥□ |⑤---|
□□□□ |--⑥-|

49
①②④① |①-②-|
③□⑥⑤ |③-④-|
⑤⑦□③ |⑤-⑥-|
⑦□⑧□ |⑦-⑧-|

50
①□□① |①---|
②□□□ |②-③-|
>④□③ |④-⑤-|
□□□□ |⑥-⑦-|

□□□□
□□□□
□⑤⑤<
□□□□

□□□□
>⑥□□
□□⑥□
□□□□

□□□□
□⑦⑦<
□□□□
□□□□

51
①④□□ |①---|
□□①③ |--②-|
①□□□ |③-④-|
□□②□ |⑤---|

□□□□
□□□□
⑤□□□
□□□□

52
①⑦⑦① |①---|
②⑥⑤④ |②---|
③①①□ |③-④⑤|
⑥□□□ |⑥-⑦-|

53
①⑤⑤① |①---|
□④③② |----|
□①①□ |--②③|
□□□□ |④-⑤-|

54
①□□① |①---|
②③⑤③ |②---|
③①①□ |③-④⑤|
⑥④②⑦ |⑥⑦⑧⑨|

□□□⑨
□□□□
□⑧□□
□□□□

55
□①□□ |①-②-|
□|□□ |③-④-|
□|□□ |⑤---|
□∧□□ |⑥---|

□②□□
□□□□
>――③
□□□□

□□□□
⑥⑤⑥⑤
□□□④
□⑤⑥□

56
④②①④ |①---|
⑦③⑦⑤ |②--③|
①②①② |④-⑤-|
□⑥□□ |⑥-⑦-|

57
⑥□⑥⑦ |①-②③|
□⑥□⑤ |④-⑤-|
□④③② |⑥---|
①□①⑤ |⑦-⑧⑨|

□□□□
□□□□
□□□□
⑧⑨□□

58
□②⑤□ |①--②|
□⑥③⑤ |③-④-|
⑦□⑥□ |⑤-⑥-|
□⑦①④ |⑦---|

59
□②□② |①---|
①③□③ |②---|
□②□② |③---|
③□①□ |④---|

④□□□
□□④□
□□□□
□□④□

60
④②□① |①---|
⑦③⑦④ |②--③|
①②①⑤ |④-⑤-|
□⑥□② |⑥-⑦-|

61
⑨③⑨③ |①-②-|
□⑦⑧□ |③-④-|
②⑤⑥□ |⑤⑥⑦⑧|
①□①④ |⑨-⑩-|

□□□□
□□□□
⑩□□□
□□□□

62
>――① |①-②-|
□□□□ |③-④-|
□□□□ |⑤-⑥-|
□□□□ |⑦-⑧⑨|

□①□⑤
②⑦□□
⑨④⑤①
⑥③□⑧

63
⑧⑧□□ |①-②-|
③⑤①③ |③-④-|
□⑩⑦□ |⑤-⑥⑦|
⑥②④⑨ |⑧-⑨⑩|

64
⑧□①① |①-②③|
④④⑦⑦ |④-⑤⑥|
⑥⑨⑨③ |⑦-⑧-|
□②⑤⑧ |⑨-⑩-|

□□□⑩
□□□□
□□□□
⑩□□□

65
□①①□ |①-②-|
③③⑤□ |③-④-|
⑥□□□ |⑤-⑥-|
□②④□ |⑦-⑧-|

⑦⑦□□
□□□□
□□□⑧
□□□□

66
□□□① |①---|
>――② |②-③-|
□□□□ |④-⑤-|
□③□□ |⑥-⑦-|

□□⑤□
④⑥□④
□□□□
□□⑦□

67
□□③□ |①---|
⑤⑥⑥⑤ |--②-|
①□□① |③-④⑤|
□②④□ |--⑥-|

68
④②④② |--①-|
□⑥□⑥ |②-③-|
□⑤③□ |④-⑤-|
①□⑦□ |⑥-⑦-|

69
□①⑥□ |①--②|
①⑥①⑥ |-③④⑤|
②⑤□⑦ |⑥--⑦|
③②⑦④ |-⑧⑨-|

□⑧□□
□□⑨□
□□□□
□□□□

70
①⑧⑧② |①--②|
⑤□□□ |--③④|
⑦②①④ |⑤-⑥⑦|
③□□⑥ |⑧---|

71
①⑧⑧① |①-②③|
⑦⑦④④ |④-⑤⑥|
□③⑥⑨ |⑦--⑧|
⑤⑩②□ |-⑨⑩-|

72
①□□① |①-②③|
④□③④ |--④-|
⑥②□⑦ |⑤-⑥-|
⑤⑥⑦⑤ |⑦-⑧-|

⑧□□□
□⑧□□
□□□□
□□□□

73
□④⑥① |①---|
④□①⑥ |②③④-|
□□③□ |--⑤-|
②⑦□⑤ |⑥-⑦-|

74
②⑤⑦⑤ |①-②-|
⑦②①□ |③-④-|
⑥④⑥⑦ |⑤-⑥-|
□□③□ |⑦---|

75
□□□□ |①---|
□□①□ |②---|
□□|□ |③-④-|
①①∧① |----|

□□□□
□③②□
③∧③③
□□□□

□□□□
□④□□
□□□□
□□□□

76
□□□□ |①---|
□□□① |②---|
□□□| |----|
①①①∧ |----|

□□□□
□□□②
□□□□
□□□□

77
③□□② |①---|
①⑤④⑧ |----|
□①①① |②③④⑤|
□⑦⑥□ |⑥⑦⑧⑨|

□□□□
⑨――<
□□□□
□□□□

78
□□□□ |----|
①□□□ |----|
□□□□ |①---|
□□□□ |----|
最終更新:2023年11月01日 22:02