アットウィキロゴ
Ice Candy Coaster / irucaice / いるかアイス
BPM:226
Notes:988

1
□□□□ |----|
□□□□ |----|
①②③④ |----|
□□□□ |①②③④|

2
⑧□□⑤ |①-②-|
①⑦⑥③ |③-④-|
□□□□ |⑤-⑥-|
□②④□ |⑦-⑧-|

3
□③①□ |①-②-|
⑤□□⑧ |③-④-|
④⑥⑦② |⑤-⑥-|
□□□□ |⑦-⑧-|

4
□□□□ |①-②-|
□①③□ |③-④-|
⑧□□⑤ |⑤-⑥-|
②⑦⑥④ |⑦-⑧-|

5
□②③□ |①-②-|
①⑥⑤④ |③-④-|
□⑧⑦□ |--⑤⑥|
□□□⑨ |⑦⑧⑨-|

6
□⑤⑤④ |①-②-|
□⑥□□ |③-④-|
□□⑦③ |⑤---|
①①②□ |⑥-⑦-|

7
□⑤⑤④ |①-②-|
□□③⑦ |③-④-|
□□□⑥ |⑤-⑥-|
①①⑧② |⑦-⑧-|

8
□④□⑤ |①-②-|
②□③□ |③---|
□①①□ |④-⑤-|
⑥⑦⑧⑨ |⑥⑦⑧⑨|

9
①□④□ |①---|
□⑤③□ |②-③-|
②□□⑥ |--④-|
□□□□ |⑤-⑥-|

10
①④⑤① |①-②-|
②□□□ |③-④-|
□①①⑦ |--⑤-|
□⑥□③ |⑥-⑦-|

11
①□□① |①-②-|
④①①③ |③-④-|
⑥□⑤□ |--⑤-|
②□⑦□ |⑥-⑦-|

12
①①①① |①-②-|
⑥④③⑦ |③-④-|
□□□□ |--⑤-|
□②□⑤ |⑥-⑦-|

13
④□□④ |--①-|
⑤⑥⑦⑧ |②-③-|
①③③② |④---|
□①②□ |⑤⑥⑦⑧|

14
□①②④ |①---|
□⑤□□ |--②-|
□□□□ |--③-|
□③□□ |④-⑤-|

15
□□□□ |①---|
⑥□④□ |--②-|
□⑤①③ |③-④-|
②□□□ |⑤-⑥-|

16
④①①□ |①---|
□④□② |②-③-|
⑤□□□ |--④-|
□⑤□③ |--⑤-|

17
□③④□ |--①-|
□⑤②□ |②-③-|
□□⑥① |④-⑤-|
□⑦□□ |⑥-⑦-|

18
②③④① |①---|
⑤□□① |--②③|
□□□⑥ |④-⑤-|
□⑦□□ |⑥-⑦-|

19
④□□⑤ |①-②-|
⑥①①③ |③-④-|
□②⑦□ |--⑤-|
□□□□ |⑥-⑦-|

20
□①①⑥ |①---|
□④⑤□ |--②-|
③□□□ |③-④-|
□□□② |⑤-⑥-|

21
□③②□ |①-②-|
④⑩⑨① |③-④-|
□⑧⑦□ |--⑤⑥|
□⑥⑤□ |⑦⑧⑨⑩|

22
④⑥⑤③ |①-②-|
④□□③ |--③-|
②⑥⑤① |④---|
②□□① |⑤-⑥-|

23
□⑧⑦□ |--①②|
□⑥⑤□ |③-④-|
④□□□ |⑤-⑥-|
□③②① |⑦-⑧-|

24
③□□④ |①-②-|
①⑤⑥② |--③-|
③⑤⑥④ |④---|
①□□② |⑤-⑥-|

25
□⑥⑤□ |--①②|
④□□□ |③-④-|
⑧□□⑦ |⑤-⑥-|
①②③□ |⑦-⑧-|

26
⑥□□⑦ |--①-|
□②□④ |②-③-|
□⑤□□ |④-⑤-|
①□③□ |⑥-⑦-|

27
⑨②□□ |--①-|
④⑤⑥⑦ |②-③-|
①□□□ |④⑤⑥⑦|
□⑧□③ |⑧-⑨-|

28
□⑫□⑤ |①②③④|
⑦⑧⑨⑩ |⑤-⑥-|
④③②① |⑦⑧⑨⑩|
⑪□⑥□ |⑪-⑫-|

29
⑫□⑤□ |①②③④|
⑦⑧⑨⑩ |⑤-⑥-|
④③②① |⑦⑧⑨⑩|
□⑪□⑥ |⑪-⑫-|

30
⑥②⑥① |①-②-|
□□□□ |--③-|
④②③① |④---|
④⑤③⑤ |⑤-⑥-|

31
□②□① |--①-|
⑤⑥⑦⑧ |②-③-|
④②③① |④---|
④□③□ |⑤⑥⑦⑧|

32
①③①③ |①-②-|
⑤□⑥□ |--③-|
④⑤④⑥ |④---|
□②□② |⑤-⑥-|

33
③③④④ |--①-|
□□□□ |②-③-|
⑤⑥⑦⑧ |④---|
①①②② |⑤⑥⑦⑧|

34
⑤□□⑧ |①-②-|
①①③③ |③-④-|
□□□□ |⑤-⑥-|
②⑥⑦④ |⑦-⑧-|

35
□⑦⑥□ |①-②-|
①①③③ |③-④-|
□②④□ |⑤-⑥-|
⑧□□⑤ |⑦-⑧-|

36
⑧⑦⑥⑤ |①-②-|
①①③③ |③-④-|
□□□□ |⑤-⑥-|
□②④□ |⑦-⑧-|

37
□□□□ |①-②-|
③⑥⑤④ |③-④-|
□⑧⑦□ |--⑤⑥|
①□⑨② |⑦⑧⑨-|

38
④④④□ |①-②-|
③□□⑤ |③-④-|
⑥□□② |⑤---|
①①□⑦ |⑥-⑦-|

39
⑦⑦□⑤ |①-②-|
④④④□ |③-④-|
□③⑥② |⑤-⑥-|
①①⑧⑧ |⑦-⑧-|

40
□□①③ |--①-|
□□□□ |②---|
⑤⑥⑦⑧ |③-④-|
②④□□ |⑤⑥⑦⑧|

41
③①□□ |①-②-|
①③②④ |③-④-|
□⑦□□ |--⑤-|
⑤⑥④② |⑥-⑦-|

42
③③①① |①-②-|
⑧④②⑤ |③-④-|
□□□□ |⑤-⑥-|
□⑦⑥□ |⑦-⑧-|

43
③③①① |①-②-|
□□□□ |③-④-|
④⑥⑦② |⑤-⑥-|
⑤□□⑧ |⑦-⑧-|

44
□⑦①① |①-②-|
⑤③⑧④ |③-④-|
⑤□□□ |⑤-⑥-|
□⑥②□ |⑦-⑧-|

45
②⑥③⑤ |①---②-|
□□□□ |--③---|
④①①④ |④---⑤-|
③⑤②⑥ |--⑥---|

46
⑤□□□ |①---|
①①①① |--②③|
□②③④ |④-⑤-|
⑦□⑥□ |⑥-⑦-|

47
□④□① |①-②-|
⑦□③⑤ |③-④-|
②⑧⑥□ |⑤-⑥-|
□□□□ |⑦-⑧-|

48
②□①① |①---|
□□□③ |--②-|
④□□□ |--③-|
□□□⑤ |④-⑤-|

49
④□⑤④ |①-②-|
□③□□ |③-④-|
⑥□②⑦ |--⑤-|
□①①□ |⑥-⑦-|

50
□□□③ |①---|
②②②② |--②-|
□④□□ |--③-|
①①①① |--④-|

51
②④①⑤ |--①-|
□□□③ |②-③-|
⑥□⑦□ |④-⑤-|
□□□□ |⑥-⑦-|

52
□⑤□⑥ |①---|
②②②② |--②-|
□③□④ |③-④-|
①①①① |⑤-⑥-|

53
①□④□ |①---|
□③□□ |②-③-|
①⑤②⑥ |--④-|
□□□□ |⑤-⑥-|

54
□③□④ |①---|
②②②② |--②-|
⑤□⑥□ |③-④-|
①①①① |⑤-⑥-|

55
□⑥③□ |--①-|
④□⑤□ |②-③-|
□②□① |--④-|
□□□□ |⑤-⑥-|

56
③□□④ |①-②-|
□⑦⑧② |③-④-|
⑤□□⑥ |⑤-⑥-|
①①①① |⑦-⑧-|

57
□①②□ |①-②-|
⑤□□⑥ |③-④-|
□③④□ |⑤-⑥-|
⑦□⑨⑧ |⑦-⑧⑨|

58
□□③② |①---|
□④□□ |--②-|
□□□⑤ |--③-|
□①□□ |④-⑤-|

59
□⑥⑤④ |①-②-|
③□□□ |③-④-|
□□②□ |--⑤-|
□①□□ |--⑥-|

60
□□□□ |①---|
□②②□ |②---|
①③③① |③---|
④⑤⑥⑦ |④⑤⑥⑦|

61
④③②① |①②③④|
⑧⑦⑥⑤ |⑤⑥⑦⑧|
⑫⑪⑩⑨ |⑨⑩⑪⑫|
⑬□□□ |⑬---|

62
④③②① |①②③④|
⑧⑦⑥⑤ |⑤⑥⑦⑧|
⑫⑪⑩⑨ |⑨⑩⑪⑫|
⑯⑮⑭⑬ |⑬⑭⑮⑯|

63
④③②① |①②③④|
⑧⑦⑥⑤ |⑤⑥⑦⑧|
⑫⑪⑩⑨ |⑨⑩⑪⑫|
⑯⑮⑭⑬ |⑬⑭⑮⑯|

64
④②□① |①-②-|
⑤□□③ |③-④-|
⑦□□⑥ |⑤-⑥-|
□□□⑧ |⑦-⑧-|

65
⑩⑧⑦⑨ |①②③④|
⑫⑥⑤⑪ |⑤⑥⑦⑧|
⑭④③⑬ |⑨⑩⑪⑫|
⑯②①⑮ |⑬⑭⑮⑯|

66
□□□□ |①---|
□□□□ |----|
□□□□ |②---|
□②①□ |----|

67
□□□□ |①---|
□□□□ |----|
□②①□ |②---|
□□□□ |----|

68
□□□① |①---|
□□□② |②---|
□□□③ |③---|
□□□④ |④---|

69
□□□□ |①---|
□□□□ |----|
□□□□ |----|
①□□□ |----|

70
□①①□ |①---②-|
③□⑥⑤ |③---④-|
□⑦□□ |⑤---⑥-|
□②④⑧ |⑦---⑧-|

71
□①①④ |①---|
□③□□ |----②-|
□□⑤□ |③---④-|
②⑥□□ |⑤---⑥-|

72
⑤□□□ |①---②-|
①□⑦③ |③---④-|
⑧④□⑥ |⑤---⑥-|
□□②□ |⑦---⑧-|

73
⑤①□⑥ |①---②-|
□④⑦③ |③---④-|
□□②□ |⑤---⑥-|
⑧□□□ |⑦---⑧-|

74
⑥□①□ |----①-|
□□□④ |②---③-|
□②□⑦ |④---⑤-|
□⑤□③ |⑥---⑦-|

75
□①□⑥ |----①-|
④□□□ |②---③-|
⑦□②□ |④---⑤-|
③□⑤□ |⑥---⑦-|

76
□②①□ |----①-|
□④③□ |②---③-|
□⑥⑤□ |④---⑤-|
□□⑦□ |⑥---⑦-|

77
□□⑤③ |①---②-|
②□□□ |③---④-|
⑥□□④ |----⑤-|
①□□⑦ |⑥---⑦-|

78
③⑧⑧⑥ |①-②-③-|
□⑤②□ |④-⑤-⑥-|
⑧⑦⑦⑧ |⑦---|
□①④□ |⑧---|

79
⑤□□⑧ |①-②-|
①⑥⑦③ |③-④-|
□□□□ |⑤-⑥-|
②□□④ |⑦-⑧-|

80
□⑤⑥□ |①-②-|
①□□③ |③-④-|
⑦②④⑦ |⑤-⑥-|
□□□□ |⑦---|

81
⑧⑦⑥⑤ |①-②-|
①①③③ |③-④-|
□□□□ |⑤-⑥-|
□②④□ |⑦-⑧-|

82
□□□□ |①-②-|
③⑥⑤④ |③-④-|
□⑧⑦□ |--⑤⑥|
①□⑨② |⑦⑧⑨-|

83
④④④□ |①-②-|
③□□⑤ |③-④-|
⑥□□② |⑤---|
①①□⑦ |⑥-⑦-|

84
⑦⑦□⑤ |①-②-|
④④④□ |③-④-|
□③⑥② |⑤-⑥-|
①①⑧⑧ |⑦-⑧-|

85
□□①③ |--①-|
□□□□ |②---|
⑤⑥⑦⑧ |③-④-|
②④□□ |⑤⑥⑦⑧|

86
□□□□ |①-②-|
③①②④ |③-④-|
□⑦□□ |--⑤-|
⑤□□⑥ |⑥-⑦-|

87
③③①① |①-②-|
⑧④②⑤ |③-④-|
□□□□ |⑤-⑥-|
□⑦⑥□ |⑦-⑧-|

88
③③①① |①-②-|
□□□□ |③-④-|
④⑥⑦② |⑤-⑥-|
⑤□□⑧ |⑦-⑧-|

89
□⑦①① |①-②-|
⑤③⑧④ |③-④-|
⑤□□□ |⑤-⑥-|
□⑥②□ |⑦-⑧-|

90
②⑥③⑤ |①---②-|
□□□□ |--③---|
④①①④ |④---⑤-|
③⑤②⑥ |--⑥---|

91
⑤□□□ |①---|
①①①① |--②③|
□②③④ |④-⑤-|
⑦□⑥□ |⑥-⑦-|

92
□④□① |①-②-|
⑦□③⑤ |③-④-|
②⑧⑥□ |⑤-⑥-|
□□□□ |⑦-⑧-|

93
④□①① |①---|
□□□③ |----|
□□□□ |--②-|
②□□□ |③-④-|

94
□②⑦① |①-②-|
②□③□ |③-④-|
□④①③ |--⑤-|
⑥④□⑤ |⑥-⑦-|

95
①□□□ |①-②-|
⑤③□② |③-④-|
□□□□ |--⑤-|
⑦□④⑥ |⑥-⑦-|

96
□②□① |①-②-|
⑥□③⑦ |③-④-|
②④①③ |--⑤-|
□④⑤□ |⑥-⑦-|

97
①□⑤② |①-②-|
□①④□ |③-④-|
③⑥②⑦ |--⑤-|
③□□④ |⑥-⑦-|

98
⑧④□⑦ |①-②-|
②□⑤③ |③-④-|
⑥□□□ |⑤-⑥-|
□①①□ |⑦-⑧-|

99
⑧⑦⑦□ |①-②-|
⑥□⑤⑤ |③-④-|
□④③③ |⑤-⑥-|
②□①① |⑦-⑧-|

100
□⑪⑫① |①-②③|
□⑩⑨⑧ |④-⑤⑥|
⑦⑥⑤□ |⑦-⑧⑨|
□②③④ |⑩-⑪⑫|

101
⑥□□① |①-②-|
②□□⑥ |③-④-|
□□□③ |--⑤-|
④⑤⑤□ |⑥---|

102
□①①⑤ |①---|
⑥①①□ |--②③|
□④③② |④-⑤-|
□□□⑦ |⑥-⑦-|

103
④□□□ |--①-|
□①□④ |②-③-|
□⑤⑤③ |--④-|
③□②□ |--⑤-|

104
□□□④ |①---|
①②③□ |②---|
⑤□□□ |③-④-|
□□□⑥ |⑤-⑥-|

105
□⑦⑦⑦ |①-②-|
⑤⑤□② |③-④-|
⑧③③⑥ |⑤-⑥-|
①①④□ |⑦-⑧-|

106
□□□□ |①---|
□□③② |②---|
□□□□ |③---|
□①□①

107
□□□□ |①---|
②③□□ |②---|
□□□□ |③---|
①□①□

108
□□③□ |①---|
□□□② |②---|
□□□□ |③---|
□①□①

109
□③□□ |①---|
②□□□ |②---|
□□□□ |③---|
①□①□

110
□□□② |①---|
□□③□ |②---|
□□□□ |③---|
□①□①

111
②□□□ |①---|
□③□□ |②---|
□□□□ |③---|
①□①□

112
□□□□ |①---|
□□③② |②---|
□□□□ |③---|
□①□①

113
□□□□ |①---|
□□□□ |----|
□①①□ |----|
□□□□ |----|
最終更新:2023年11月01日 22:04