アットウィキロゴ
チックタック@ラビリンス
Tanchiky

EXTREME


BPM:185
Notes:834

1
①□□□ |①---|
□□□⑥ |②③④⑤|
⑦⑧⑨⑩ |⑥---|
⑤④③② |⑦⑧⑨⑩|

2
④□□□ |①-②③|
①③②⑤ |④-⑤-|
⑨□□⑧ |⑥-⑦-|
⑥□⑦□ |⑧-⑨-|

3
⑥□□① |①---|
②③④⑤ |②③④⑤|
⑩⑨⑧⑦ |⑥---|
□□□□ |⑦⑧⑨⑩|

4
⑤⑥⑥① |①-②-|
④□□③ |③-④-|
□□□□ |⑤---|
□②□□ |⑥---|

5
⑥□□⑥ |①-②-|
⑤□□⑤ |③-④-|
③□④③ |⑤---|
①②□① |⑥---|

6
□⑥□□ |①-②-|
⑤⑩⑦⑤ |③-④-|
③⑧④③ |⑤--⑥⑦⑧|
①②⑨① |⑨-⑩-|

7
⑥□□⑥ |①-②-|
⑤□□⑤ |③-④-|
③□④③ |⑤---|
①②□① |⑥---|

8
□⑤⑤□ |①-②-|
⑥□□⑥ |③-④-|
③⑦⑦③ |⑤-⑥-|
①②④① |⑦---|

9
□□□⑧ |①-②③|
□⑦⑨□ |④-⑤-|
⑥□□⑤ |⑥-⑦-|
①④③② |⑧-⑨-|

10
□□⑩□ |①-②③|
⑥⑨□② |④-⑤-|
□①⑧③ |⑥---|
⑤⑦□④ |⑦⑧⑨⑩|

11
⑨①□④ |①-②③|
□□□□ |④-⑤-|
⑩③⑧⑤ |⑥-⑦⑧|
□⑦②⑥ |⑨-⑩-|

12
□④①□ |①-②③|
□□③⑤ |④-⑤-|
⑦②□⑦ |⑥---|
□⑥□□ |⑦---|

13
①⑨⑧① |①-②③|
④③②□ |④-⑤-|
□□⑤□ |⑥-⑦-|
□⑥⑦□ |⑧-⑨-|

14
□□□⑧ |①-②③|
□⑦□② |④-⑤-|
①□⑨③ |⑥-⑦-|
⑥⑤□④ |⑧-⑨-|

15
□⑧④□ |①-②③|
⑥□□② |④---|
①③⑦⑤ |⑤-⑥⑦|
□⑩⑨□ |⑧-⑨⑩|

16
①□□③ |①-②-|
□②④□ |③-④-|
⑤□⑦⑤ |⑤---|
③⑥⑥① |⑥-⑦⑧|

□□□□
□⑧□□
□□□□
□□□□

17
□□①□ |①---|
□□□□ |--②-|
③□□② |③---|
□□□□ |----|

18
□③③□ |①---|
□□□□ |②---|
□②②□ |③---|
□①①□ |----|

19
□□□□ |①---|
①□②① |②-③-|
③□□⑥ |④---|
⑤□□④ |⑤-⑥-|

20
⑤□②⑥ |①-②③|
①③□⑦ |④-⑤-|
□□④⑧ |⑥-⑦-|
□□□⑨ |⑧-⑨-|

21
□□④□ |①---|
□⑤②④ |②-③-|
①③⑥□ |④---|
□①□□ |⑤-⑥-|

22
□③⑦③ |①---|
□□⑥□ |②---|
□②⑤② |③---|
□①④① |④⑤⑥⑦|

23
①□⑧□ |①-②③|
⑦□□④ |④---|
□③⑥□ |⑤-⑥⑦|
□⑤□② |⑧---|

24
□□□□ |①-②-|
□⑥⑥⑤ |③-④-|
④⑥⑥③ |⑤---|
②□□① |⑥---|

25
②③④⑤ |①-②-|
①□□⑥ |③-④-|
□□□⑦ |⑤-⑥-|
□□□⑧ |⑦-⑧-|

26
⑨□□⑧ |①-②-|
⑤⑦⑥□ |③-④-|
④⑪⑩□ |⑤-⑥⑦|
③②①□ |⑧⑨⑩⑪|

27
□①①□ |①---|
③□□□ |②---|
□□④③ |③---|
②④□② |④---|

28
□①②□ |①-②-|
⑧□□③ |③-④-|
⑦□□④ |⑤-⑥-|
□⑥⑤□ |⑦-⑧-|

29
⑤①□④ |①-②③|
□③②□ |④⑤⑥⑦|
□⑦⑥□
□□□□

30
□□④□ |①---|
②④□② |②---|
③□□③ |③---|
①□□① |④---|

31
①□□⑤ |①-②③|
⑥□③⑦ |④-⑤-|
□②□□ |⑥-⑦-|
⑧④□⑨ |⑧-⑨-|

32
□⑧□□ |①-②-|
□③④⑤ |③-④-|
⑦②①□ |⑤-⑥-|
□□⑥□ |⑦-⑧-|

33
⑧□①⑨ |①-②-|
④⑥⑦⑤ |③-④-|
□□□② |⑤-⑥⑦|
⑩③□⑪ |⑧⑨⑩⑪|

34
□□□□ |①---|
③□□③ |②---|
④①①④ |③---|
□②②□ |④---|

35
□①①□ |①---|
□□□④ |②-③④|
□③□□
□②②□

36
①□⑥③ |①---|
⑤②□□ |②-③-|
□□④□ |④---|
□□□□ |⑤-⑥-|

37
⑦③□④ |①---|
⑧□□⑤ |②-③-|
⑨②□⑥ |④⑤⑥⑦⑧⑨|
□①⑩□ |⑩-⑪-|

□□□□
□□□□
□□□□
□⑪□□

38
⑩⑨⑧⑦ |①-②③|
⑥②③⑤ |④-⑤-|
□□①⑪ |⑥--⑦⑧⑨|
④□□□ |⑩-⑪-|

39
□□□③ |①---|
③□□□ |②---|
①④②□ |③---|
□②④□ |④---|

40
①③□③ |①---|
③□③① |②---|
②⑤②⑦ |③---|
④②⑥② |④⑤⑥⑦|

41
□□□□ |①-②-|
⑤①□④ |③-④-|
□□□□ |⑤---|
⑥③□② |⑥---|

42
④□①⑤ |①-②-|
⑥□□□ |③-④-|
②□③□ |⑤---|
□□□□ |⑥---|

43
⑧④□□ |①-②-|
□□⑤① |③-④-|
□□⑦③ |⑤-⑥-|
⑥②□□ |⑦-⑧-|

44
□□②⑥ |①-②-|
⑤□⑦④ |③-④-|
①⑧□□ |⑤--⑥⑦⑧|
⑨③□⑩ |⑨-⑩-|

45
①①⑤□ |①---|
③④□⑥ |②-③④|
□□②□ |⑤---|
□⑦⑧□ |⑥-⑦⑧|

46
⑨□□⑦ |①-②③|
④⑤⑥□ |④-⑤⑥|
⑧③②① |⑦-⑧-|
□□□□ |⑨---|

47
□⑤⑤⑧ |①-②③|
□⑦□④ |④---|
□③□⑥ |⑤-⑥⑦|
①①□② |⑧---|

48
④④④④ |①---|
③③③□ |②---|
②②□□ |③---|
①□□□ |④---|

49
□□□□ |①-②-|
⑥⑦⑧⑨ |③-④⑤|
□⑤⑩□ |⑥-⑦-|
④③②① |⑧-⑨⑩|

50
□□□⑥ |①-②-|
□⑩⑦□ |③④-⑤|
④□⑨⑤ |-⑥⑦-|
⑧③②① |⑧-⑨⑩|

51
□⑥①□ |①-②③|
③⑪⑤⑧ |--④⑤|
□④⑩□ |⑥-⑦⑧|
⑨②⑦□ |-⑨⑩⑪|

52
①□②① |①-②-|
⑤⑦⑥⑤ |③-④-|
③④□③ |⑤-⑥-|
□□□□ |⑦---|

53
□□□□ |①-②-|
⑥⑦⑧⑨ |③-④⑤|
□⑤⑩□ |⑥-⑦-|
④③②① |⑧-⑨⑩|

54
□□□⑥ |①-②-|
□⑩⑦□ |③④-⑤|
④□⑨⑤ |-⑥⑦-|
⑧③②① |⑧-⑨⑩|

55
□④⑤□ |①-②-|
⑧□□① |③-④-|
③□□⑥ |⑤-⑥-|
□⑦②□ |⑦-⑧-|

56
⑥⑧⑧⑥ |①②③④|
□④①□ |⑤-⑥-|
⑧③②⑧ |⑦---|
⑦□⑤⑦ |⑧---|

57
③□⑦⑤ |①-②-|
□⑥□① |③-④⑤|
□②□□ |-⑥-⑦|
□□④⑧ |⑧-⑨-|

□□□□
□□□⑨
□□□□
□□□□

58
⑤⑦□③ |①-②-|
①□⑥⑨ |③-④⑤|
□□②□ |-⑥-⑦|
⑧④□□ |⑧-⑨-|

59
⑦□□⑤ |①-②-|
③⑥⑥□ |③-④⑤|
□②⑩⑨ |-⑥-⑦|
□⑧④① |⑧--⑨⑩⑪|

□□□□
□□□□
□⑪□□
□□□□

60
□④③□ |①-②-|
□⑥□□ |③-④-|
①□⑥□ |⑤---|
⑤□□② |⑥---|

61
③□⑦⑤ |①-②-|
□⑥□① |③-④⑤|
□②□□ |-⑥-⑦|
□□④⑧ |⑧-⑨-|

□□□□
□□□⑨
□□□□
□□□□

62
⑤⑦□③ |①-②-|
①□⑥⑨ |③-④⑤|
□□②□ |-⑥-⑦|
⑧④□□ |⑧-⑨-|

63
⑥□②⑤ |①-②③|
①③□□ |④-⑤-|
⑦⑧⑨⑩ |⑥--⑦⑧⑨|
□□④□ |⑩-⑪-|

□□□□
⑪□□□
□□□□
□□□□

64
□②□⑤ |①-②③|
□□③① |④-⑤-|
⑥□□□ |⑥---|
□④□□ |----|

65
①①②② |①---|
①□□② |②---|
④□□③ |③---|
④④③③ |④---|

66
②⑦⑧⑥ |①-②③|
⑤③①□ |④-⑤-|
□⑨④□ |⑥-⑦-|
□□□□ |⑧-⑨-|

67
③③④④ |①---|
③□□④ |②---|
②□□① |③---|
②②①① |④---|

68
⑤□□□ |①-②-|
⑩②□□ |③④-⑤|
⑥⑨□④ |-⑥⑦⑧|
⑧⑦③① |⑨-⑩-|

69
④④①① |①---|
④□□① |②---|
③□□② |③---|
③③②② |④---|

70
□□⑤② |①-②③|
□⑨③⑦ |④-⑤-|
□④①⑧ |⑥-⑦-|
□□□⑥ |⑧-⑨-|

71
②②③③ |①---|
②□□③ |②---|
①□□④ |③---|
①①④④ |④---|

72
⑥⑥⑥⑥ |①-②-|
⑤⑤④□ |③-④-|
③③②□ |⑤---|
①①□□ |⑥---|

73
⑧□□□ |①-②③|
□⑨⑦□ |④-⑤-|
⑤□□⑥ |⑥-⑦-|
②③④① |⑧-⑨-|

74
□⑩□□ |①-②③|
②□⑨⑥ |④-⑤-|
③⑧①□ |⑥---|
④□⑦⑤ |⑦⑧⑨⑩|

75
④□①⑨ |①-②③|
□□□□ |④-⑤-|
⑤⑧③⑩ |⑥-⑦⑧|
⑥②⑦□ |⑨-⑩-|

76
□①④□ |①-②③|
⑤③□⑤ |④-⑤-|
⑦□②⑦ |⑥---|
□⑥⑥□ |⑦---|

77
①⑧⑨① |①-②③|
□②③④ |④-⑤-|
□⑤□□ |⑥-⑦-|
□⑦⑥□ |⑧-⑨-|

78
⑧□□□ |①-②③|
②□⑦□ |④-⑤-|
③⑨□① |⑥-⑦-|
④□⑤⑥ |⑧-⑨-|

79
□④⑧□ |①-②③|
②□□⑥ |④---|
⑤⑦③① |⑤-⑥⑦|
□□□□ |⑧---|

80
□□□□ |①-②③|
□③②□ |④-⑤-|
⑤□④□ |⑥---|
①⑦⑦⑥ |⑦---|

81
①□⑥① |①---|
⑩④⑨⑤ |②③④⑤|
②⑧③⑦ |⑥---|
□□□□ |⑦⑧⑨⑩|

82
⑥①⑧□ |①-②③|
□□□⑤ |④-⑤-|
⑨□⑦□ |⑥-⑦-|
②③④□ |⑧-⑨-|

83
□⑥□□ |①---|
⑤⑨④⑩ |②③④⑤|
⑦③⑧② |⑥---|
①□□① |⑦⑧⑨⑩|

84
□□①□ |①-②-|
□□③□ |③-④-|
□②□□ |⑤---|
⑥④⑤⑥ |⑥---|

85
①□□① |①---|
□⑤⑩⑥ |②③④⑤|
③⑨④⑧ |⑥---|
□②⑦□ |⑦⑧⑨⑩|

86
□④③② |①-②③|
①⑧□⑨ |④-⑤-|
⑤□□□ |⑥-⑦-|
□⑥□⑦ |⑧-⑨-|

87
□⑤⑥④ |①-②-|
③⑦□□ |③-④-|
□□⑧② |⑤--⑥⑦⑧|
①⑨□⑩ |⑨-⑩-|

88
④③□□ |①---|
□□④② |②---|
②④□□ |③---|
①□③④ |④---|

89
□③②① |①---|
③①□② |②---|
②□①③ |③---|
①②③④ |④---|
最終更新:2024年01月23日 17:27