アットウィキロゴ
BPM:200
1
□□□□ |①---|
□①①□ |----|
□①①□ |----|
□□□□ |----|
2
①②□□ |----|
□□□□ |----|
□□□□ |----|
□□□□ |--①②|
3
□□①□ |①---|
□□□□ |----|
□□□□ |----|
□□□□ |----|
4
□□①□ |----|
□②③□ |----|
□④⑤□ |-①②③|
□⑥⑦□ |④⑤⑥⑦|
5
①③⑧④ |①-②-|
③⑤□□ |③-④-|
⑤□□⑥ |⑤-⑥-|
⑦⑦□② |⑦-⑧-|
6
①③⑥□ |①-②-|
③□⑥② |③-④-|
⑤□④⑤ |⑤---|
⑥□⑤□ |⑥---|
7
①③⑧④ |①-②-|
③⑤□□ |③-④-|
⑤□□⑥ |⑤-⑥-|
⑦⑦□② |⑦-⑧-|
8
①□⑥□ |①-②-|
③□⑥② |③-④-|
⑤□④⑤ |⑤---|
⑥□⑤□ |⑥---|
9
②④⑦⑤ |①-②-|
③③⑥⑥ |③-④-|
④②⑤⑦ |--⑤-|
□□□① |⑥-⑦-|
10
□□□□ |--①-|
①③⑥④ |②-③-|
②②⑤⑤ |--④-|
③①④⑥ |⑤-⑥-|
11
①①⑤⑤ |①-②-|
③③⑦⑦ |③-④-|
②②⑥⑥ |⑤-⑥-|
④④⑧⑧ |⑦-⑧-|
12
□□□□ |----|
□□□□ |----|
□□□□ |----|
□□□□ |----|
13
□⑥③⑥ |①-②---|
□□⑤□ |③---|
②②□③ |-④-⑤|
①①④□ |⑥---|
14
⑥□⑥□ |①-②---|
□⑤□③ |③---|
②②□③ |-④-⑤|
①①□④ |⑥---|
15
□⑥□⑥ |①-②---|
③□⑤□ |③---|
□②②③ |-④-⑤|
□①①④ |⑥---|
16
⑧⑨⑩□ |①-②---|
③⑦⑦⑤ |③④--|
⑥②②④ |⑤⑥--|
③①①⑤ |⑦--⑧⑨⑩|
17
⑤□□① |①---|
②□⑤□ |②---|
□④□□ |-③-④|
②③□□ |⑤---|
18
□③⑥③ |①-②---|
⑥□□□ |③---|
□⑤②② |-④-⑤|
□④①① |⑥---|
19
□③⑧④ |①-②-|
□⑤□□ |③-④-|
⑦□⑤⑥ |⑤-⑥-|
①⑦□② |⑦-⑧-|
20
□②⑤□ |--①-|
④④□① |②-③-|
□□⑤⑤ |④---|
④□③□ |⑤---|
21
①□□③ |①---|
⑧③①⑨ |②-③-|
⑥⑦□□ |④⑤⑥⑦|
④⑤②① |⑧-⑨-|
22
①□①③ |①---|
□□②□ |②-③-|
□□□□ |④⑤⑥⑦|
③□□□ |⑧-⑨-|

⑨□□□
□□□⑧
□□⑦⑥
□□⑤④
23
□③①③ |①---|
④⑤②□ |②-③-|
⑥⑦□□ |④⑤⑥⑦|
⑧①⑨□ |⑧-⑨-|
24
①②①③ |①---|
③□□□ |②-③-|
□□□□ |④⑤⑥⑦|
□□□□ |⑧-⑨-|

⑨□□□
□□⑤④
□□⑦⑥
□□□⑧
25
⑧③⑨□ |①---|
⑥⑦□③ |②-③-|
④⑤□□ |④⑤⑥⑦|
①②①□ |⑧-⑨-|
26
⑨③□⑧ |①---|
□□⑦⑥ |②-③-|
③□⑤④ |④⑤⑥⑦|
①□②① |⑧-⑨-|
27
□③①□ |①---|
④⑤□□ |②-③-|
⑥⑦□③ |④⑤⑥⑦|
⑧①②⑨ |⑧-⑨-|
28
①□①③ |①---|
③□□□ |②-③-|
□□□□ |④⑤⑥⑦|
□②□□ |⑧-⑨-|

□⑨⑨□
□□⑤④
□□⑦⑥
□□□⑧
29
①□□□ |①-②-|
③②□④ |③-④-|
①□□□ |⑤-⑥-|
□□②□ |⑦--⑧⑨⑩|

⑧⑨⑩□
□□□□
□⑦□⑥
⑤□□□
30
⑦□□① |①-②-|
②③④⑤ |③-④-|
⑦⑥⑧⑥ |⑤-⑥-|
⑤②③④ |⑦-⑧-|
31
□①□① |①-②-|
□□③□ |③-④-|
□□□□ |⑤-⑥-|
④②②□ |⑦--⑧⑨⑩|

⑧⑨⑩□
□⑥□□
□□⑦⑤
□□□□
32
□□□① |①-②-③-|
⑧⑦③④ |--④---|
②⑤□⑥ |⑤-⑥-⑦-|
⑧⑦③④ |--⑧---|
33
□①□② |①-②-|
□□□□ |③-④-|
②④①□ |⑤-⑥-|
□□③□ |⑦--⑧⑨⑩|

⑧⑨⑩□
□□⑤□
□□□⑦
□⑥□□
34
□□□① |①②-③|
□②⑤③ |④-⑤⑥|
⑥④⑨⑨ |⑦-⑧-|
⑧⑧⑦□ |⑨---|
35
①□①② |①-②-|
③□④□ |③-④-|
□②□□ |⑤-⑥-|
□□□□ |⑦--⑧⑨⑩|

⑧⑨⑩□
□□□□
⑦□□□
⑤□□⑥
36
□□□① |①-②③|
□④⑦□ |④-⑤⑥|
□⑥③□ |⑦--⑧⑨⑩|
□②⑤□ |⑪⑫⑬⑭⑮⑯|

⑪⑫⑬⑭
⑩□□⑮
⑨□□⑯
⑧□□□
37
⑦□□⑧ |①-②-|
□③④□ |③-④-|
⑦⑤③□ |⑤-⑥-|
⑤②⑥① |⑦-⑧-|
38
⑥□②⑥ |①-②-|
①③□④ |③-④-|
□⑤□□ |⑤---|
⑤③□□ |⑥---|
39
⑦③□⑧ |①-②-|
③⑤□④ |③-④-|
①⑦□□ |⑤-⑥-|
□⑤②⑥ |⑦-⑧-|
40
□③②□ |①-②-|
⑤□□⑤ |③-④-|
③□□④ |⑤---|
①⑥⑥□ |⑥---|
41
①□⑤④ |①-②-|
□③□⑧ |③-④-|
⑦①③⑥ |⑤-⑥-|
⑤□⑦② |⑦-⑧-|
42
□⑥⑥④ |①-②-|
①□②□ |③-④-|
□③③□ |⑤---|
⑤①□⑤ |⑥---|
43
①⑦⑦③ |①-②-|
③⑥□⑤ |③-④-|
⑤②④⑧ |⑤-⑥-|
⑧④②⑥ |⑦-⑧-|
44
□□□□ |----|
□□□□ |----|
□□□□ |----|
□□①① |--①-|
45
③□③□ |①-②-|
∧□□② |③-④-|
①<□□ |⑤-⑥-|
□□□□ |⑦-⑧⑨|

□⑦□⑦
⑥□⑧∧
□⑨>⑤
□□□□

4□□8
□□□□
3□□6
□□□□
46
⑥□⑧□ |①-②-|
∧④∧② |③-④-|
⑦<>⑤ |⑤-⑥-|
①<③< |⑦-⑧-|

7□□□
□□□□
8□□6
2□4□
47
□□□④ |①-②-|
□③□□ |③-④-|
□□③□ |⑤⑥-⑦|
①□□② |⑧-⑨-|

□⑨⑨□
⑤□□⑥
□□□□
□⑦⑧□

□□1□
□□□□
□□□□
□□□□
48
③⑦⑦④ |①-②-|
⑥□②⑥ |③-④-|
③⑤⑤④ |⑤-⑥-|
①□□② |⑦---|
49
□□□□ |①-②-|
∨①③∨ |③-④-|
□□□□ |⑤-⑥-|
①④②③ |⑦-⑧-⑨-|

□∨□□
⑤□□□
□⑤⑥□
□□□□

□⑨⑧⑦
□□□□
□□□□
□□□□

□□□□
□□□□
□6□□
2□□4
50
①□□□ |①-②-|
□□□③ |③-④-|
∧□□□ |⑤-⑥⑦|
□④②∧ |⑧---|

□□⑧□
⑤□□□
⑤⑦□⑥
□□□□

2□□□
□□□4
□□□□
□□□□
51
□⑨⑨④ |①-②-|
⑤③□⑥ |③-④-|
□□③□ |⑤⑥-⑦|
①⑦⑧② |⑧-⑨-|
52
③⑦⑦④ |①-②-|
⑤□②⑤ |③-④-|
③⑥⑥④ |⑤-⑥-|
①⑧⑧② |⑦-⑧-|
53
④<>⑤ |①---|
□①①□ |②-③---|
③⑥⑥③ |④-⑤-|
②□□② |⑥---|

5□□6
□□□□
□□□□
□□□□
54
□④②□ |①-②-|
①<>③ |③-④-|
□□□□ |⑤-⑥⑦|
□□□□ |⑧---|

⑤□□□
□□⑥□
⑤⑦□□
□□⑧□

□□□□
2□□4
□□□□
□□□□
55
□⑨⑨④ |①-②-|
⑤③□⑥ |③-④-|
□□③□ |⑤⑥-⑦|
①⑦⑧② |⑧-⑨-|
56
③⑦⑦④ |①-②-|
⑥□②⑥ |③-④-|
③⑤⑤④ |⑤-⑥-|
①□□② |⑦---|
57
□□□□ |①-②-|
③④< |③-④-|
□□□□ |⑤-⑥-|
①②< |⑦-⑧-⑨-|

□⑨⑧⑦
□□□⑥
⑤<□□
□□□□

□□□□
□45□
6□□□
□23□
58
①>⑧□ |①-②-|
∧>⑧□ |③-④-⑤-|
⑥⑤④③ |⑥-⑦-|
□⑦②□ |⑧-⑨-|

2□9□
□□9□
□□□□
□□□□
59
□⑨⑨④ |①-②-|
⑤③□⑥ |③-④-|
□□③□ |⑤⑥-⑦|
①⑦⑧② |⑧-⑨-|
60
⑫⑪⑩⑨ |①-②-|
⑬⑤②⑧ |③-④-|
⑭③④⑦ |⑤--⑥⑦⑧|
①□□⑥ |⑨⑩⑪⑫⑬⑭|
61
□□□□ |①---|
□□□□ |----|
□□□□ |----|
①□□□ |----|
62
□□□□ |①---|
□①①□ |----|
□①①□ |----|
□□□□ |----|
63
□□②① |----|
□□□□ |----|
□□□□ |----|
□□□□ |①-②-|
64
□①□□ |①---|
□□□□ |----|
□□□□ |----|
□□□□ |----|
65
□□□□ |①---|
①□□② |②---|
①□□② |----|
□□□□ |----|
66
⑤□⑨⑥ |①-②③|
⑧□④⑥ |④-⑤-|
⑧③□□ |⑥-⑦-|
②⑦□① |⑧-⑨-|
67
□□□□ |①-②③|
□□⑤⑦ |④-⑤-|
⑦④③② |⑥---|
①⑥⑥□ |⑦---|
68
⑥⑨□⑤ |①-②③|
⑥④□⑧ |④-⑤-|
□□③⑧ |⑥-⑦-|
①□⑦② |⑧-⑨-|
69
□□①□ |①--②|
□②③□ |--③-|
①□□□ |④---|
③④④② |----|
70
①□⑪③ |①-②③|
④②⑧□ |④⑤⑥-|
⑦□⑤□ |⑦⑧-⑨|
⑩⑥□⑨ |⑩-⑪-|
71
①②□③ |①-②③|
④⑥⑧□ |④⑤⑥-|
⑦⑨⑤□ |⑦⑧⑨⑩|
□□□⑩ |----|
72
①③⑧④ |①②③④|
⑤⑦⑩⑭ |⑤⑥⑦⑧|
⑨⑪⑥⑯ |⑨⑩⑪⑫|
⑬⑮②⑫ |⑬⑭⑮⑯|
73
□□□□ |----|
□□□□ |----|
□□□□ |----|
□□□□ |----|
74
□②①□ |----|
□□□□ |----|
□□□□ |----|
□□□□ |--①②|
75
①□⑪③ |①-②③|
④②⑧⑪ |④⑤⑥-|
⑦⑩⑤□ |⑦⑧-⑨|
⑩⑥□⑨ |⑩-⑪-|
76
①①□③ |①-②③|
④②⑧⑩ |④⑤⑥-|
⑦□⑤□ |⑦⑧-⑨|
⑩⑥⑪⑨ |⑩-⑪-|
77
①⑬③□ |①-②③|
④②⑩□ |④⑤⑥⑦|
⑧⑤⑥⑦ |⑧-⑨⑩|
⑪⑨□⑫ |⑪⑫⑬-|
78
①⑫⑪③ |①-②③|
④②⑧⑤ |④⑤⑥-|
⑦⑥□⑧ |⑦⑧-⑨|
⑩⑦⑨□ |⑩-⑪⑫|
79
①□⑪③ |①-②③|
④②⑧⑪ |④⑤⑥-|
⑦⑩⑤□ |⑦⑧-⑨|
⑩⑥□⑨ |⑩-⑪-|
80
①①⑩⑪ |①-②③|
④②⑧⑫ |④⑤⑥-|
⑦⑨③⑬ |⑦⑧⑨-|
⑩⑥⑤⑭ |⑩---⑪⑫⑬⑭|
81
①⑬⑩□ |①-②③|
④②⑦□ |④⑤⑥⑦|
⑧⑨③⑫ |⑧-⑨⑩|
⑪⑥⑤□ |⑪⑫⑬-|
82
①□□③ |①-②③|
④②□□ |④⑤⑥-|
⑥□⑤□ |⑦---|
□□□□ |⑧⑨⑩⑪|

□□□□
□□⑦
□□□□
⑧⑨⑩⑪

□□□□
□□□8
□□□□
□□□□
83
①①□② |①-②-|
③③⑥⑩ |③-④-|
⑤⑤④⑨ |⑤-⑥-|
⑦⑦⑧⑧ |⑦--⑧⑨⑩|
84
①⑤②④ |①-②-|
③③⑥⑩ |③-④-|
⑤⑦□⑨ |⑤-⑥-|
⑦□⑧⑧ |⑦--⑧⑨⑩|
85
①⑤②④ |①-②-|
③③⑥⑩ |③-④-|
⑤□□⑨ |⑤-⑥-|
⑦⑦⑧⑧ |⑦--⑧⑨⑩|
86
①□⑥④ |①-②-|
③③⑧□ |③-④-|
⑤⑦②⑩ |⑤⑥⑦⑧|
⑨⑪□⑫ |⑨⑩⑪⑫|
87
①①⑥⑩ |①-②-|
③③□② |③-④-|
⑤⑤⑧□ |⑤-⑥-|
⑨⑦④□ |⑦⑧⑨⑩|
88
①⑥⑥⑦ |①-②-|
③③⑧□ |③-④-|
⑤□□② |⑤---⑥-|
□□④⑤ |--⑦-⑧-|
89
③□□⑧ |①---②-|
⑨□□⑥ |③-④⑤|
⑩⑦②⑤ |⑥---⑦-|
□①□④ |⑧-⑨⑩|
90
□□□□ |①-②-|
□②④□ |③-④-|
□□③□ |⑤⑥⑦⑧⑨⑩|
①□□□ |⑪⑫⑬⑭⑮⑯|

⑤⑥⑦⑧
⑯□□⑨
⑮□□⑩
⑭⑬⑫⑪
91
⑤□□⑥ |①-②③|
□①④□ |④-⑤-|
□③②□ |⑥-⑦-|
⑧⑨⑩⑦ |⑧⑨⑩-|
92
⑤②⑤④ |①-②-|
①⑥③② |③-④-|
③④①⑦ |⑤-⑥-|
⑦⑧⑧⑥ |⑦-⑧-|
93
⑧⑨⑩④ |①-②③|
①⑥⑤① |④-⑤-|
③□②⑦ |⑥-⑦-|
□□□□ |⑧⑨⑩-|
94
□□□□ |①-②-③-|
⑦⑧④③ |--④---|
②⑤①⑥ |⑤-⑥-⑦-|
⑦⑧④③ |--⑧---|
95
①□□□ |①-②③|
□□④□ |④-⑤-|
③□②□ |⑥-⑦-|
□□□⑤ |⑧⑨⑩-|

⑩⑨⑧□
□□□□
□□□⑥
⑦□□□
96
□⑨⑨① |①②-③|
□②⑤③ |④-⑤⑥|
⑥④□□ |⑦-⑧-|
⑧⑧⑦□ |⑨---|
97
⑤□⑦⑩ |①-②③|
①⑨④□ |④-⑤-|
□③□□ |⑥-⑦-|
⑧⑥□② |⑧⑨⑩-|
98
⑦⑧⑨⑩ |①-②③|
①□□④ |④-⑤⑥|
①③⑥□ |⑦-⑧-⑨-|
⑪⑤②⑫ |⑩-⑪⑫|
99
□□□□ |①---|
□①①□ |----|
□□□□ |----|
□□□□ |----|
最終更新:2024年01月23日 17:28