アットウィキロゴ
1
∨①①□ |①---|
↓□□① |----|
↓□□□ |----|
①□□□ |----|
2
□□③② |----|
□□□□ |----|
□□□□ |①---|
①□□□ |--②③|
3
□①□□ |①---|
□↑□□ |----|
□↑□□ |----|
□∧□□ |----|
4
□①②□ |----|
□⑦⑥□ |----|
□③④□ |①②③④| //①はHOLD終点
□⑤⑧□ |⑤⑥⑦⑧|
5
①④⑤③ |①-②-|
③□□⑧ |③-④-|
①□⑦② |⑤-⑥-|
⑤⑦□⑥ |⑦-⑧-|
6
①□④□ |①-②-|
⑥③⑥□ |③-④-|
①③□② |⑤---|
⑤□⑤□ |⑥---|
7
③⑤④① |①-②-|
⑧□□③ |③-④-|
②⑦□① |⑤-⑥-|
⑥□⑦⑤ |⑦-⑧-|
8
□④□① |①-②-|
□⑥③⑥ |③-④-|
②□③① |⑤---|
□⑤□⑤ |⑥---|
9
②③④① |①-②-|
□⑥⑦⑧ |③-④-|
④③②□ |⑤-⑥-|
⑤⑧⑦⑥ |⑦-⑧-|
10
①④③② |①-②-|
⑧⑦⑥□ |③-④-|
□②③④ |⑤-⑥-|
⑥⑦⑧⑤ |⑦-⑧-|
11
④③②① |①-②-|
⑧⑦⑥⑤ |③-④-|
②①③④ |⑤-⑥-|
⑤⑦⑧⑥ |⑦-⑧-|
12
□□□□ |--①-|
>→→④ |--②-|
③②①□ |--③-|
□□□□ |④⑤--|

□□□□
□□□⑤
□□□□
□□□□
13
①②□③ |①-②---|
⑧④□□ |③---|
□⑧③⑤ |④⑤⑥⑦|
⑥①□⑦ |⑧---|
14
①②□③ |①-②---|
□⑤③④ |③---|
⑦□⑧□ |④⑤⑥⑦|
□①⑥⑧ |⑧---|
15
①②③⑤ |①-②---|
⑧④□□ |③---|
⑧□□③ |④⑤⑥⑦|
⑥①⑦□ |⑧---|
16
①②⑦□ |①-②---|
⑩⑤⑨③ |③④--|
⑨□④⑦ |⑤⑥--|
⑧①□⑥ |⑦--⑧⑨⑩|
17
①②⑧③ |①-②---|
□⑤□④ |③---|
□⑦③⑧ |④⑤⑥⑦|
□①□⑥ |⑧---|
18
①②□③ |①-②---|
⑧④③⑤ |③---|
⑥⑧□□ |④⑤⑥⑦|
□①⑦□ |⑧---|
19
①③⑧④ |①-②-|
⑦⑤③□ |③-④-|
□□□⑦ |⑤-⑥-|
⑦①⑥② |⑦-⑧-|
20
①④□□ |①-②-|
⑥⑤□② |③-④-|
③□□⑥ |⑤---|
□①⑤③ |⑥---|
21
①□□② |①---|
⑧④①⑤ |②-③-|
⑥①②□ |④⑤⑥⑦|
③①⑦⑨ |⑧-⑨-|
22
①②①③ |①-②---|
⑩⑧③⑤ |③-④-|
⑥□⑨① |⑤⑥⑦⑧|
④①⑦□ |⑨-⑩-|
23
①②③⑧ |①-②---|
⑨⑦□④ |③-④-|
⑩①□③ |⑤⑥⑦⑧|
⑤①⑥① |⑨-⑩-|
24
①②⑨□ |①-②---|
⑧⑥①③ |③④⑤-|
⑩①④⑨ |⑥⑦⑧-|
⑤①⑪⑦ |⑨-⑩⑪|
25
①②□③ |①-②---|
⑤⑦①⑥ |③-④-|
⑨①③□ |⑤⑥⑦⑧|
④①⑩⑧ |⑨-⑩-|
26
①②①③ |①-②---|
⑦⑤③⑧ |③-④-|
⑨□⑥① |⑤⑥⑦⑧|
④①□⑩ |⑨-⑩-|
27
①②①③ |①-②---|
⑧④□□ |③-④-|
⑩①⑤③ |⑤⑥⑦⑧|
⑥①⑦⑨ |⑨-⑩-|
28
①②④⑩ |①-②③--|
⑨⑤①③ |④--⑤|
⑨①⑩③ |⑥-⑦-⑧-|
⑥①⑦⑧ |⑨-⑩-|
29
①⑧②□ |①-②-|
⑪③④⑤ |--③-④-|
⑩⑥□② |⑤-⑥⑦|
⑨①⑦□ |⑧--⑨⑩⑪|
30
①⑪③① |①②③④|
⑫⑤⑧⑥ |⑤-⑥⑦|
⑬⑩④② |⑧⑨⑩-|
□□⑨⑦ |⑪-⑫-⑬-|
31
①⑧□② |①-②-|
⑪③④⑤ |--③-④-|
⑩⑥②⑦ |⑤-⑥⑦|
⑨①□□ |⑧--⑨⑩⑪|
32
①⑦③① |①-②-③-|
□⑧④⑩ |--④---|
⑨⑤②⑥ |⑤-⑥-⑦-|
⑧⑦③④ |----⑧-⑨--⑩--|
33
①□②② |①-②-|
⑪⑧⑤□ |--③-④-|
⑩□④⑦ |⑤-⑥⑦|
⑨⑥③□ |⑧--⑨⑩⑪|
34
①④②④ |①②-③|
⑪⑧⑤① |④-⑤⑥|
□⑥⑩⑧ |⑦-⑧-|
⑨□⑦③ |⑨-⑩-⑪-|
35
①③④⑤ |①-②-|
⑪⑦□② |--③-④-|
⑩□□⑧ |⑤-⑥⑦|
⑨①⑥② |⑧--⑨⑩⑪|
36
①⑥⑪⑦ |①-②③|
□⑩④□ |④-⑤⑥|
□③⑤⑨ |⑦--⑧⑨⑩|
⑫⑧⑬② |⑪⑫⑬⑭⑮⑯|

⑭□□□
□□□⑮
⑯□□□
□□□□
37
□⑤⑧④ |①-②-|
③□③□ |③-④-|
□②⑤⑦ |⑤-⑥-|
⑦⑥□① |⑦-⑧-|
38
□⑥□⑥ |①-②-|
□③④② |③-④-|
①□□□ |⑤---|
□⑤③⑤ |⑥---|
39
④⑧⑤□ |①-②-|
□③□③ |③-④-|
⑦⑤②□ |⑤-⑥-|
①□⑥⑦ |⑦-⑧-|
40
⑤□⑤□ |①-②-|
②④③□ |③-④-|
□□□① |⑤---|
⑥③⑥□ |⑥---|
41
⑤④④⑤ |①-②-|
②⑧⑥③ |③-④-|
⑥③②⑦ |⑤-⑥-|
□⑦⑧① |⑦-⑧-|
42
⑦③④⑤ |①-②-|
②⑦⑥③ |③-④-|
⑤⑤②⑦ |⑤-⑥-|
④□⑧① |⑦-⑧-|
43
⑫⑥⑦⑨ |①②③④|
④⑭⑪⑤ |⑤⑥⑦⑧|
⑩⑧③⑬ |⑨⑩⑪⑫|
⑯②⑮① |⑬⑭⑮⑯|
44
□□□□ |----|
□□□□ |----|
□①①□ |----|
□□□□ |--①-|
45
□□□□ |①-②-|
□□□□ |③-④-|
□□∨□ |⑤-⑥-|
①□①□ |⑦-⑧⑨|

□③<□
③□□②
∧□□□
□□②□

□④□□
④□□□
□□□∨
□⑤□⑤

⑦<□□
□□⑥□
⑦<□□
□□□⑥

⑧□⑨⑧
□□□□
⑧□□□
□□□□
46
□□□□ |①-②-|
□①<□ |③-④-|
□□□□ |⑤-⑥-|
□□□□ |⑦-⑧-|

□□□□
□②□②
□>③□
□□□□

□□□□
④□□□
∨∨④□
⑤⑤□□

□⑥□□
□□□□
□□∨∨
⑥⑥⑦⑦

□□⑧□
□□□□
□□□□
□□⑧⑧
47
①⑩□② |①-②-|
③④⑤⑥ |③④⑤⑥⑦-|
⑦①⑧② |⑧⑨-⑩|
⑨□□⑪ |⑪-⑫-|

⑫□⑫□
□□□□
□□□□
□□□□
48
⑪⑨⑪① |①②③④|
③⑤⑨□ |⑤---⑥⑦⑧-|
⑧⑦⑥② |-⑨-⑩|
⑩④⑩□ |⑪---⑫⑬⑭⑮|

□□□⑫
□□□⑬
□□□⑭
□□□⑮
49
□□□□ |①-②-|
①□□□ |③-④-|
↑□□□ |⑤-⑥-|
∧②□□ |⑦-⑧-⑨-|

□□□□
③③□□
□↑④□
□∧□□

□□□□
□⑤⑤□
□□∧□
⑥□□□

□⑦<□
□□⑦□
□□□□
□□□□

□⑧□⑧
□□□∧
□□□□
□□□□

□□□⑨
□□□□
□□>⑨
□□□□
50
□□□□ |①-②-|
□∨□□ |③-④-|
□①□① |⑤-⑥⑦|
□□□□ |⑧---|

□□②□
□□□□
□②∨∨
□□③③

④□□□
□□□□
∨∨□□
⑤⑤④④

□□□□
□⑥⑦⑧
□□□□
⑥⑥□□
51
⑥④⑦② |①-②-|
①□□⑦ |③-④-|
①⑤⑤□ |⑤-⑥⑦|
⑧□③③ |⑧-⑨-|

□□□□
⑨□□□
□□□□
□□□□
52
⑨④⑩③ |①-②-③-|
□②⑧□ |--④-⑤⑥|
⑦⑥⑤① |⑦-⑧-⑨-|
⑨④⑩③ |--⑩---|
53
□□□□ |①-②-|
①<□□ |③-④---|
□□□□ |⑤-⑥-|
□□□□ |⑦-⑧-|

□⑤<②
②□□□
⑤④□④
□③□③

□⑥□□
□⑦⑥□
□□∨□
□□⑦□

⑧□□□
□□□□
□□□□
□□⑧□
54
□□①① |①-②-|
□□∧∧ |③-④-|
□□□□ |⑤-⑥⑦|
□□□□ |⑧---|

□□②②
□□□□
∨∨②□
③③□□

□□□□
④□⑧⑤
⑥⑦□□
④④□⑤
55
①⑥①③ |①-②-|
□□□④ |③-④-|
⑤□⑦⑤ |⑤-⑥⑦|
③⑧②□ |⑧-⑨-|

□□⑨□
⑨□□□
□□□□
□□□□
56
②⑦⑨④ |①②-③|
□②④⑥ |④-⑤⑥|
⑦⑤□⑨ |⑦-⑧-|
③⑧⑧① |⑨---|
57
①∨□□ |①-②-|
∧①□□ |③-④-|
□□□□ |⑤-⑥-|
□□□□ |⑦-⑧-⑨-|

②□>②
□②②<
□□□□
□□□□

□□□③
□□③□
>③□□
③<□□

□□□□
□□□□
□④④∨
④□∧④

□⑤□□
⑦<□⑥
⑤□⑤□
□□□⑤

□□⑧□
⑧□∧□
□□□□
□□□□

□□⑨□
□□□□
□□>⑨
□□□□
58
□□□□ |①-②-|
□□□□ |③-④-⑤-|
□∨□① |⑥-⑦-|
□①□□ |⑧-⑨-|

②□∨□
□□③□
□□□□
□②□□

□□□□
>④④□
□□□□
□□□□

□□□□
□⑤□□
□⑤□□
□∧□□

□□□□
□□□□
□⑥⑥<
□□□□

□□□□
⑧<>⑧
□□⑦□
⑦□□□

□□□□
⑨□□⑨
□□□□
□□□□
59
①③⑦④ |①-②-|
⑦□⑥□ |③-④-|
①⑥□⑤ |⑤--⑥|
□⑤③② |--⑦-|
60
①□□□ |①-②-|
□□□② |③-④-|
①□□□ |⑤--⑥⑦⑧|
□④②③ |⑨⑩⑪⑫⑬⑭|

>→→⑤
□□□□
□□□⑤
□□□□

⑫⑪⑩□
⑬⑥⑨□
⑭⑦⑧□
□□□□
61
□□□① |①---|
□□□□ |----|
□□□□ |----|
①□□□ |----|
62
□□□□ |①---|
□①①□ |----|
□①①□ |----|
□□□□ |----|
63
□□②① |----|
□□□□ |----|
□□□□ |----|
□□□□ |①-②-|
64
□①□□ |①---|
□□□□ |----|
□□□□ |----|
□□□□ |----|
65
□□□□ |①---|
①□□② |②---|
①□□② |----|
□□□□ |----|
66
⑧⑥④① |①-②③|
□□□④ |④-⑤-|
⑤□③⑥ |⑥-⑦-|
⑦②⑨⑧ |⑧-⑨-|
67
⑦□⑤② |①-②③|
①⑧③□ |④-⑤-|
④④⑨⑥ |⑥-⑦⑧|
⑥⑨□□ |⑨---|
68
⑥□⑤② |①-②③|
①□③⑧ |④-⑤-|
⑨④⑦⑥ |⑥-⑦-|
⑧□①④ |⑧-⑨-|
69
④①□□ |①--②|
①④②□ |--③-|
□②④③ |④---|
□□③④ |----|
70
⑧①⑥⑪ |①-②③|
②⑨⑤③ |④⑤⑥-|
□□⑩⑦ |⑦⑧-⑨|
①④⑦⑩ |⑩-⑪-|
71
⑧①⑥□ |①-②③|
②⑩⑤③ |④⑤⑥-|
②⑥⑨⑦ |⑦⑧⑨⑩|
①④⑦□ |----|
72
⑩①⑦⑮ |①②③④|
③⑫⑥④ |⑤⑥⑦⑧|
⑧⑯⑬⑨ |⑨⑩⑪⑫|
⑤⑭⑪② |⑬⑭⑮⑯|
73
□□□□ |----|
□□□□ |----|
□□□□ |----|
□□□□ |----|
74
□□□□ |----|
①□□□ |----|
②□□□ |----|
□□□□ |--①②|
75
⑧①⑥⑪ |①-②③|
□⑨⑤③ |④⑤⑥-|
□②⑩⑦ |⑦⑧-⑨|
①④⑦⑩ |⑩-⑪-|
76
⑧①⑥⑩ |①-②③|
②⑨⑤③ |④⑤⑥-|
□⑪□⑦ |⑦⑧-⑨|
①④⑦⑩ |⑩-⑪-|
77
□①⑦⑩ |①-②③|
②⑨⑥③ |④⑤⑥⑦|
⑫⑬⑤⑧ |⑧-⑨⑩|
①④⑧⑪ |⑪⑫⑬-|
78
①②⑤⑨ |①-②③|
⑪⑦⑥③ |④⑤⑥-|
⑫□⑩⑧ |⑦⑧-⑨|
①④⑦⑩ |⑩-⑪⑫|
79
⑧①⑥⑪ |①-②③|
□⑨⑤③ |④⑤⑥-|
□②⑩⑦ |⑦⑧-⑨|
①④⑦⑩ |⑩-⑪-|
80
⑦①⑥⑩ |①-②③|
②⑧⑤③ |④⑤⑥-|
⑪⑫⑬⑭ |⑦⑧⑨-|
①④⑦⑨ |⑩---⑪⑫⑬⑭|
81
⑥②⑤⑨ |①-②③|
④⑩⑦③ |④⑤⑥⑦|
□⑫□⑬ |⑧-⑨⑩|
①④⑧⑪ |⑪⑫⑬-|
82
□①③□ |①-②③|
②□□⑤ |④⑤⑥-|
⑥□⑥□ |⑦---|
①④□□ |⑧⑨⑩⑪|

>→→⑦
□□□□
□□□□
□□□□

⑩□□⑧
□□⑨□
□⑧□□
□□□⑪
83
⑧③②⑦ |①-②-|
①④⑨⑤ |③-④-|
③⑩⑥⑤ |⑤-⑥-|
①②⑦⑧ |⑦--⑧⑨⑩|
84
⑨②⑧□ |①-②-|
①③⑩⑤ |③-④-|
③⑪⑥⑤ |⑤-⑥-|
①④⑦⑨ |⑦--⑧--⑨-⑩-⑪-|
85
⑧③□⑦ |①-②-|
①②⑨⑤ |③-④-|
④⑩⑥⑤ |⑤-⑥-|
①③⑦⑧ |⑦--⑧⑨⑩|
86
⑨③②⑧ |①-②-|
①④⑫⑥ |③-④-|
③⑪⑦⑤ |⑤⑥⑦⑧|
①②⑩⑨ |⑨⑩⑪⑫|
87
□③②⑦ |①-②-|
①④⑩⑤ |③-④-|
③⑨⑥⑤ |⑤-⑥-|
①②⑦⑧ |⑦⑧⑨⑩|
88
⑥③②⑦ |①-②-|
①④□⑤ |③-④-|
③⑦⑧⑤ |⑤---⑥-|
①②⑥□ |--⑦-⑧-|
89
□⑤①⑧ |①---②-|
③③⑧⑥ |③-④⑤|
④□□⑦ |⑥---⑦-|
②②⑦① |⑧-⑨⑩|

□□⑩□
□□□□
□□□□
□□□⑨
90
③⑥⑭⑨ |①-②-|
⑪⑮⑫⑤ |③-④-|
⑧①④⑩ |⑤⑥⑦⑧⑨⑩|
②⑬⑦⑯ |⑪⑫⑬⑭⑮⑯|
91
②□□⑩ |①-②③|
⑧⑨⑩⑤ |④-⑤-|
⑥③④□ |⑥-⑦-|
①□⑦□ |⑧⑨⑩-|
92
□⑤⑩⑪ |①②③④|
⑩⑫□⑤ |⑤-⑥⑦|
⑥②⑦① |⑧⑨⑩-|
⑧④⑨③ |⑪-⑫-⑬-|

□□□□
□□□□
□□□⑬
□□□□
93
①⑤⑩□ |①-②③|
⑨□⑥⑩ |④-⑤-|
④①□□ |⑥-⑦-|
⑦③⑧② |⑧⑨⑩-|
94
⑨④⑩③ |①-②-③-|
□②⑧□ |--④-⑤⑥|
⑦⑥⑤① |⑦-⑧-⑨-|
⑨④⑩③ |--⑩---|
95
□④□⑤ |①-②③|
⑩③□① |④-⑤-|
⑥□⑦① |⑥-⑦⑧|
□⑧⑨② |⑨⑩⑪-|

□□⑪□
□□□□
□□□⑪
□□□□
96
②⑦⑨④ |①②-③|
□②④⑥ |④-⑤⑥|
⑦⑤⑩⑨ |⑦-⑧-|
③⑧⑧① |⑨-⑩⑪|

□□□□
□⑪□□
□□□□
□□□□
97
①□□⑪ |①-②③|
④□⑧⑥ |④-⑤-|
⑦⑤□⑪ |⑥-⑦⑧|
③⑨⑩② |⑨⑩⑪-|
98
□①①∨ |①-②③|
④□□↓ |④-⑤⑥|
□⑤③↓ |⑦-⑧-⑨-|
②□□① |⑩-⑪⑫|

⑦□□⑩
□⑧⑨⑥
⑦□□⑩
□⑫⑪⑩
99
□①①□ |①---|
□□□□ |----|
□□□□ |----|
①□□□ |----|
100
□□□□ |----|
□□□□ |----|
□□□□ |----|
□□□□ |----|
最終更新:2025年02月06日 17:10