アットウィキロゴ
新蛇姫
BEMANI Sound Team "U1-ASAMi"

EXTREME

BPM:115
Notes:964

1
⑬⑬⑬⑬ |①②③④|
⑨⑫⑪⑩ |⑤⑥⑦⑧|
⑤⑧⑦⑥ |⑨⑩⑪⑫|
①④③② |⑬-⑭-|

□□□□
□□□□
⑭□□⑭
□□□□

2
⑥⑥⑦⑦ |①②③④|
⑧⑧⑤⑤ |⑤⑥⑦⑧|
□□□□ |⑨⑩⑪⑫|
①④③② |⑬⑭⑮⑯|

□□□□
□□□□
⑭⑮⑯⑬
⑨⑫⑪⑩

3
①④③② |①②③④|
⑤⑧⑦⑥ |⑤⑥⑦⑧|
⑨⑫⑪⑩ |⑨⑩⑪⑫|
⑬□□⑬ |⑬-⑭⑮|

□□□□
⑮□□⑭
□□□□
□□□□

4
⑫⑩⑨⑪ |①②③④|
⑪⑨⑩⑫ |⑤⑥⑦⑧|
①④③② |⑨-⑩-|
⑤⑧⑦⑥ |⑪-⑫-|

5
⑦⑦⑤⑤ |①②③④|
⑥⑥⑧⑧ |⑤⑥⑦⑧|
□□□□ |⑨⑩⑪⑫|
①④③② |⑬-⑭⑮|

□□□□
⑭⑮□□
⑬⑬⑬⑬
⑨⑫⑪⑩

6
⑥⑥⑦⑦ |①②③④|
⑧⑧⑤⑤ |⑤⑥⑦⑧|
⑨⑫⑪⑩ |⑨⑩⑪⑫|
①④③② |⑬-⑭⑮|

□□□□
□□⑭⑮
□□□□
⑬□□⑬

7
①①②② |①-②-|
⑤⑦⑨□ |③-④⑤|
□⑩⑧⑥ |⑥⑦⑧⑨|
③③④④ |⑩---|

8
⑤⑥⑥① |①--②|
⑤②③① |--③-|
①③②④ |④-⑤-|
①⑥⑥④ |⑥-⑦-|

□□□□
□⑦⑦□
□⑦⑦□
□□□□

9
④><④ |①②③④|
③□□③ |----|
②□□② |----|
①□□① |----|

10
④□□④ |----|
□④④□ |----|
□||□ |④---|
□∧∧□ |⑤---|

□□□□
□⑤⑤□
□□□□
□□□□

11
④⑤⑤④ |①②③④|
③□□③ |-⑤-⑥|
②□□② |-----⑦---|
①⑥⑥① |-⑧--|

□□□□
⑦□□□
□□□⑧
□□□□

12
□□□□ |①---|
>―①□ |----|
□①―< |----|
□□□□ |--②-|

□□□□
□②②□
□②②□
□□□□

13
⑧⑥④② |①-②-|
⑧⑥④② |③-④-|
□□□□ |⑤-⑥-|
①③⑤⑦ |⑦-⑧-|

14
□□⑫⑪ |①-②-|
⑩⑨⑧⑦ |③-④-|
④③②① |⑤-⑥-|
⑥⑥⑤⑤ |⑦⑧⑨⑩⑪-⑫-|

15
①③⑤⑦ |①-②-|
□⑨⑩□ |③-④-|
⑧⑥④② |⑤-⑥-|
⑧⑥④② |⑦---⑧-⑨⑩|

16
②②④④ |①②③-|
⑩⑥⑥⑧ |④-⑤-|
⑦⑥⑥⑨ |⑥---⑦⑧⑨⑩|
□⑤③① |⑪⑫⑬⑭⑮---|

⑫⑭□⑮
□□□□
□□□□
⑮□⑬⑪

17
④③⑤□ |①-②-|
③②①④ |--③-|
④①②③ |--④-|
□⑤③④ |⑤-⑥-|

□□□□
□□⑥□
□⑥□□
□□□□

18
□④□② |①②③④|
□⑦□⑤ |-⑤⑥⑦|
□□⑥□ |⑧⑨⑩⑪|
①□③□ |⑫-⑬-|

□⑪□⑨
⑫□□⑬
⑬□□⑫
⑧□⑩□

19
①――< |①---|
□□□□ |--②-|
□□□□ |--③-|
>――① |④-⑤-|

②□③□
②④⑤③
③④⑤②
□③□②

20
□④③② |①②③④|
⑥⑦⑧□ |⑤⑥⑦⑧|
⑩□□⑩ |⑨-⑩-|
①⑨⑨⑤ |⑪⑫⑬⑭|

⑭⑬⑫⑪
□□□□
□□□□
□□□□

21
④③⑤□ |①-②-|
③②①④ |--③-|
④①②③ |--④-|
□⑤③④ |⑤-⑥-|

□□□□
□□⑥□
□⑥□□
□□□□

22
□④□② |①②③④|
□⑦□⑤ |-⑤⑥⑦|
□□⑥□ |⑧⑨⑩⑪|
①□③□ |⑫-⑬-|

□⑪□⑨
⑫□□⑬
⑬□□⑫
⑧□⑩□

23
□⑤③④ |①-②-|
④①②③ |--③-|
③②①④ |--④-|
④③⑤□ |⑤-⑥-|

□□□□
□⑥□□
□□⑥□
□□□□

24
⑧□③⑦ |①②③④|
⑤⑧④⑥ |--⑤⑥|
⑥①⑧⑤ |⑦-⑧-|
⑦②□⑧ |⑨-⑩-|

□∨□□
□|⑨□
□⑨|□
□□∧□

□□□□
□□⑩□
□⑩□□
□⑩□□

25
④⑥⑤③ |①②③④|
②⑦⑦① |⑤⑥-⑦|
②⑦⑦① |⑧⑨⑩-⑪-⑫-|
⑧⑨⑩□ |-⑬⑭-|

⑭□□□
□□□□
⑪□□⑫
□□□⑬

26
□②①③ |①②③-|
④④□⑤ |④-⑤⑥|
□⑦⑥⑧ |⑦⑧-⑨|
⑨⑨⑩⑪ |-⑩⑪-|

27
③⑤⑥④ |①②③④|
①⑦⑦② |⑤⑥-⑦|
①⑦⑦② |⑧⑨⑩-⑪-⑫-|
□⑩⑨⑧ |-⑬⑭-|

□□□⑭
□□□□
⑫□□⑪
⑬□□□

28
④□②⑥ |①-②-|
□③□① |③-④-|
④□②□ |⑤-⑥-|
⑤③□① |⑦⑧⑨⑩|

□□□□
□⑦⑩□
□⑨⑧□
□□□□

29
④⑥⑤③ |①②③④|
②⑦⑦① |⑤⑥-⑦|
②⑦⑦① |⑧⑨⑩-⑪-⑫-|
⑧⑨⑩□ |-⑬⑭-|

⑭□□□
□□□□
⑪□□⑫
□□□⑬

30
□②①③ |①②③-|
④④□⑤ |④-⑤⑥|
□⑦⑥⑧ |⑦⑧-⑨|
⑨⑨⑩⑪ |-⑩⑪-|

31
①①②② |①-②③|
⑥□□⑦ |④⑤⑥⑦|
⑤□□④ |⑧-⑨-|
③□□□ |⑩⑪⑫⑬|

□⑧⑨□
□⑨⑧□
□⑬⑫□
⑪⑪⑩⑩

32
①①②② |①-②-|
①□□② |③-④-|
④□□③ |⑤-⑥-|
④④③③ |⑦⑧⑨-|

□⑤□□
⑤⑧⑥⑨
⑨⑥⑧⑦
□□⑦□

33
□②□□ |①---|
□□③□ |②③-④|
④□⑤⑥ |-⑤⑥-|
①□□① |⑦⑧⑨-|

⑨⑦□□
⑨□⑧□
□□□□
□□□□

34
□⑤□① |①②③④|
□□⑥② |⑤⑥-⑦|
⑦□⑧③ |-⑧⑨-|
□□□④ |⑩⑪-⑫|

□⑩□□
□□⑪□
⑫□□⑨
□□□□

35
□③□□ |①-②-|
□□④□ |③④-⑤|
⑤⑤③③ |⑥-⑦-|
②②①① |⑧⑨-⑩|

□⑧□□
□□⑨□
⑩⑩⑧⑧
⑦⑦⑥⑥

36
□③□□ |①-②-|
□□④□ |③④-⑤|
⑤⑤③③ |⑥-⑦-|
②②①① |⑧⑨-⑩|

□⑧□□
□□⑨□
⑩⑩⑧⑧
⑦⑦⑥⑥

37
□③□□ |①-②-|
□□④□ |③④⑤-|
⑥⑦□□ |⑥-⑦-|
⑤③②① |⑧⑨⑩-|

□⑧□□
□□⑨□
□□⑧⑩
□□□□

38
⑬⑭⑮⑯ |①②③④|
⑫⑪⑩⑨ |⑤⑥⑦⑧|
⑤⑥⑦⑧ |⑨⑩⑪⑫|
④③②① |⑬⑭⑮⑯|

39
□□□□ |①②③④|
④③②① |⑤⑥⑦⑧|
⑤⑥⑦⑧ |⑨⑩⑪⑫|
⑫⑪⑩⑨ |⑬⑭⑮⑯|

□□□□
□□□□
⑬⑭⑮⑯
□□□□

40
①③④② |①②③④⑤⑥⑦⑧|
⑦⑤⑥⑧ |⑨⑩⑪⑫⑬⑭⑮⑯|
⑮⑬⑭⑯ |⑰-⑱⑲|
⑨⑪⑫⑩ |⑳-㉑-|

⑰⑳⑲⑱
⑲⑱⑳□
□□□□
㉑㉑㉑㉑

41
④⑤⑥③ |①②③-|
⑦⑧⑨② |④⑤⑥⑦⑧⑨⑩⑪|
⑩⑪⑫① |⑫-⑬-|
□□∧□ |⑭---⑮⑯⑰-|

□□□□
□□□□
□□⑬□
⑬―<□

□□□□
□□□□
□□□⑭
⑭⑮⑯⑰

42
②⑥⑤④ |①-②③|
③⑨⑧⑦ |④⑤⑥⑦⑧⑨⑩⑪|
①⑫⑪⑩ |⑫-⑬-|
□∧□□ |⑭⑮--|

□□□□
∨□□□
⑬⑬□□
□□□□

□□□□
□□□□
⑭□□□
□□⑮⑭

43
①③③② |①-②-|
②③③① |③---④⑤⑥⑦|
④⑤⑥⑦ |⑧⑨⑩⑪⑫⑬⑭⑮|
⑧⑨⑩⑪ |⑯⑰⑱⑲⑳㉑㉒-|

⑭⑱⑰⑬
⑫⑯⑲⑮
⑳㉑㉒□
□□□□

44
□□□□ |①-②-|
□□□□ |③---|
□□□□ |④-⑤-|
①―<□ |⑥⑦⑧⑨|

□□□□
□□□∨
□□□|
②□□②

□>―③
□□□□
□□□□
□□□③

④□□④
|□□□
∧□□□
□□□□

⑤□□□
□□□□
□□□□
⑤―<□

□□□□
□⑦⑦□
□⑧⑧□
⑥⑨⑨⑥

45
④⑤⑥③ |①②③-|
⑦⑧⑨② |④⑤⑥⑦⑧⑨⑩⑪|
⑩⑪⑫① |⑫-⑬-|
□□∧□ |⑭-⑮-|

□□□□
□□□∨
□□⑬⑬
□□□□

□□□□
□□□□
□□□⑭
>⑭□□

□□□□
□□□□
□□□□
□⑮□⑮

46
①⑥⑤④ |①-②③|
□⑨⑧⑦ |④⑤⑥⑦⑧⑨⑩⑪|
②⑫⑪⑩ |⑫-⑬-|
③∧□□ |⑭-⑮⑯|

□□□□
∨□□□
⑬⑬□□
□□□□

□□□□
□□□□
⑭□□□
⑯⑮□⑭

47
①③③② |①-②-|
②③③① |③-④-|
④□□④ |⑤⑥⑦⑧⑨⑩⑪⑫|
⑤⑥⑦⑧ |⑬⑭⑮⑯⑰⑱⑲-|

⑪⑮⑭⑩
⑨⑬⑯⑫
⑰⑱⑲□
□□□□

48
□□□□ |①-②-|
□□□□ |③---|
□□□□ |④-⑤-|
①―<□ |⑥-⑦-|

□□□□
□□□∨
□□□|
②□□②

□>―③
□□□□
□□□□
□□□③

④□□④
|□□□
∧□□□
□□□□

⑤□□□
□□□□
□□□□
⑤―<□

□□□□
□⑦⑦□
□⑦⑦□
⑥□□⑥

49
⑤④④⑤ |①②③④|
③□□③ |⑤-⑥-|
②⑦⑦② |⑦-⑧-|
⑥①①⑥ |⑨⑩⑪⑫⑬---|

⑩⑫⑪⑨
⑧□⑬⑧
□□□□
□□□□

50
□□④□ |①-②-|
③⑥⑤③ |③④⑤⑥|
②□□② |⑦-⑧-|
□①①□ |⑨⑩⑪⑫⑬---|

⑩□□⑨
□□⑬□
□⑫⑪□
⑧⑦⑦⑧

51
□④④⑤ |①②③④|
③⑤□③ |⑤-⑥⑦|
②⑥⑥② |--⑧⑨|
⑦①①⑦ |⑩⑪⑫⑬⑭---|

⑩⑫⑬⑪
⑨⑭□⑨
□□□□
□⑧⑧□

52
⑤④④⑥ |①-②-|
③⑦⑧③ |③-④⑤|
⑨②②⑩ |⑥⑦⑧⑨|
①□□① |⑩-⑪-|

□□□□
⑪□□⑪
□⑪⑪□
□⑪⑪□

53
①①②② |①②③-|
□④④□ |④-⑤⑥|
⑥⑤⑤⑥ |⑦⑧⑨-⑩-⑪-|
③□□③ |-⑫⑬-|

⑦⑧⑨⑬
⑩□⑬□
□□□□
⑫⑫⑪⑪

54
⑧④④⑧ |①②③-|
③⑦⑦③ |④-⑤⑥|
①①②② |⑦-⑧⑨|
⑥⑤⑤⑥ |-⑩⑪-|

□⑪⑪□
⑨□□⑨
□⑩⑩□
□□□□

55
③□□③ |①②③-|
□④④□ |④-⑤⑥|
⑥⑤⑤⑥ |⑦⑧⑨-⑩-⑪-|
①①②② |-⑫⑬-|

⑫⑫⑪⑪
⑩□□□
□□⑬□
⑦⑧⑨⑬

56
⑧⑨⑩⑪ |①--②|
②⑫②⑫ |----③④⑤⑥|
⑦①⑦① |⑦-⑧⑨⑩⑪⑫-|
⑥⑤④③ |⑬-⑭-|

□□□□
⑬□⑬□
□⑭□⑭
□□□□
最終更新:2024年01月23日 17:30