アットウィキロゴ
Angritte
Lafale

BASIC

Level: 3
BPM: 155
Notes: 302

1
口口口口 |----|
口口口口 |----|
口口口口 |----|
口口口口
2
口口口口 |①---|
口口口口 |----|
口①①口 |----|
口口口口
3
口口口口 |①---|
口③②① |②---|
口口口口 |③---|
口口口口
4
口口口口 |①---|
①口口口 |----|
口口口口 |----|
口口口口
5
口口口口 |①---|
口口口口 |②---|
①②③口 |③---|
口口口口
6
口口口口 |①---|
口口口口 |----|
口口口① |----|
口口口口
7
口③②① |①---|
口口口口 |②---|
口口口口 |③---|
口口口口
8
①口口口 |①---|
口口口口 |----|
口口口口 |----|
口口口口
9
口口口口 |①---|
口口口口 |②---|
口口口口 |③---|
①②③口
10
口口口口 |①---|
口口口口 |----|
口口口口 |----|
口口口①
11
口口口口 |----|
口口口口 |----|
口①①口 |①---|
口口口口
12
口口口① |①---|
口口口口 |----|
口口②② |②---|
口口口口
13
①口口口 |①---|
口口口口 |----|
②②口口 |②---|
口口口口
14
口口①口 |①---|
口口口口 |----|
口口②② |②---|
口口口口
15
口①口口 |①---|
口口口口 |----|
②②口口 |②---|
口口口口
16
口口口口 |①---|
口口口① |----|
口口口口 |②---|
口口②②
17
口口口口 |①---|
①口口口 |----|
口口口口 |②---|
②②口口
18
口口②② |①---|
口口口口 |----|
口口①口 |②---|
口口口口
19
口口口口 |①---|
②口口② |----|
口①口口 |②---|
口口口口
20
口口②① |①---|
口口口口 |②---|
口口③③ |③---|
口口口口
21
①②口口 |①---|
口口口口 |②---|
③③口口 |③---|
口口口口
22
口口口口 |①---|
口口②① |②---|
口口口口 |③---|
口口③③
23
口口口口 |①---|
①②口口 |②---|
口口口口 |③---|
③③口口
24
口口口口 |①---|
口口口口 |----|
口①①口 |----|
口口口口
25
口口口口 |①---|
口①①口 |----|
口口口口 |----|
口口口口
26
①口口① |①---|
②口口② |②---|
③口口③ |③---|
口口口口
27
口口口口 |①---|
口口口口 |----|
口口口口 |----|
①口口①
28
口口口口 |①---|
口口②口 |--②-|
口口①口 |----|
口口口口
29
①②③口 |①---|
口口口口 |②---|
口口口口 |③---|
口口口口
30
口口口口 |①---|
口②口口 |--②-|
口①口口 |----|
口口口口
31
口③②① |①---|
口口口口 |②---|
口口口口 |③---|
口口口口
32
口口口口 |①---|
口口①口 |--②-|
口口②口 |----|
口口口口
33
口口口口 |①---|
口口口口 |②---|
口口口口 |③---|
①②③口
34
口口口口 |①---|
口①口口 |--②-|
口②口口 |----|
口口口口
35
口口口口 |①---|
口口口口 |②---|
口口口口 |③---|
口③②①
36
口口口口 |①---|
口②②口 |--②-|
口①①口 |----|
口口口口
37
口③②① |①---|
口口口口 |②---|
口口口口 |③---|
口口口口
38
口口口口 |①---|
口①①口 |--②-|
口②②口 |----|
口口口口
39
口口口口 |①---|
口口口口 |②---|
口口口口 |③---|
①②③口
40
口口口口 |①---|
口口口③ |②---|
口口口② |③---|
口口口①
41
口口口口 |①---|
③口口口 |②---|
②口口口 |③---|
①口口口
42
口①①口 |①---|
口②②口 |②---|
口③③口 |③---|
口口口口
43
口口口口 |①---|
口口口口 |----|
口口口口 |----|
口①①口
44
口口口口 |①---|
口口口口 |----|
口①①口 |----|
口口口口
45
口口口口 |①---|
口③②① |②---|
口口口口 |③---|
口口口口
46
口口口口 |①---|
①口口口 |----|
口口口口 |----|
口口口口
47
口口口口 |①---|
口口口口 |②---|
①②③口 |③---|
口口口口
48
口口口口 |①---|
口口口口 |----|
口口口① |----|
口口口口
49
口③②① |①---|
口口口口 |②---|
口口口口 |③---|
口口口口
50
①口口口 |①---|
口口口口 |----|
口口口口 |----|
口口口口
51
口口口口 |①---|
口口口口 |②---|
口口口口 |③---|
①②③口
52
口口口口 |①---|
口口口口 |----|
口①①口 |----|
口口口口
53
口口口口 |①---|
口③②① |②---|
口口口口 |③---|
口口口口
54
口口口口 |①---|
口口口口 |----|
口①①口 |----|
口口口口
55
口口口口 |①---|
口口口口 |②---|
①②③口 |③---|
口口口口
56
口口口口 |①---|
口①①口 |----|
口口口口 |----|
口口口口
57
口③②① |①---|
口口口口 |②---|
口口口口 |③---|
口口口口
58
口口口口 |①---|
口①①口 |----|
口口口口 |----|
口口口口
59
口口口口 |①---|
①②③口 |②---|
口口口口 |③---|
口口口口
60
口口口口 |①---|
口口口口 |----|
口①①口 |----|
口口口口
61
口口口口 |①---|
口③②① |②---|
口③②① |③---|
口口口口
62
口口口口 |①---|
①口口口 |----|
①口口口 |----|
口口口口
63
口口口口 |①---|
①②③口 |②---|
①②③口 |③---|
口口口口
64
口口口口 |①---|
口口口① |----|
口口口① |----|
口口口口
65
口③②① |①---|
口③②① |②---|
口口口口 |③---|
口口口口
66
①口口口 |①---|
①口口口 |----|
口口口口 |----|
口口口口
67
①②③口 |①---|
①②③口 |②---|
口口口口 |③---|
口口口口
68
口口口① |①---|
口口口① |----|
口口口口 |----|
口口口口
69
口口口口 |①---|
口口口口 |②---|
口③②① |③---|
口③②①
70
口口口口 |①---|
口口口口 |----|
①口口口 |----|
①口口口
71
①②③口 |①---|
①②③口 |②---|
口口口口 |③---|
口口口口
72
口口口① |①---|
口口口① |----|
口口口口 |----|
口口口口
73
口口口口 |①---|
①②③口 |②---|
口口口口 |③---|
①②③口
74
口口口口 |①---|
口口口① |----|
口口口口 |----|
口口口①
75
口③②① |①---|
口口口口 |②---|
口③②① |③---|
口口口口
76
①口口口 |①---|
口③口口 |②---|
①口口② |③---|
口口口口
77
口口①① |①---|
口口②② |②---|
口口③③ |③---|
口口口口
78
口口口口 |①---|
口口③口 |②---|
②口口口 |③---|
口口口①
79
①①口口 |①---|
②②口口 |②---|
③③口口 |③---|
口口口口
80
口口口口 |①---|
口③口口 |②---|
口口口② |③---|
①口口口
81
口口①① |①---|
口口②② |②---|
口口③③ |③---|
口口口口
82
口口口口 |①---|
口口③口 |②---|
②口口口 |③---|
口口口①
83
①口口① |①---|
②口口② |②---|
③口口③ |③---|
口口口口
84
口口口口 |①---|
口口③口 |②---|
口②口口 |③---|
口口①口
85
③①口② |①---|
口口口口 |②---|
口口口口 |③---|
口口口口
86
口口①口 |①---|
口②口口 |②---|
口口③口 |③---|
口口口口
87
口口口口 |①---|
口口口口 |②---|
口口口口 |③---|
③①口②
88
口口口③ |①---|
口口②口 |②---|
口口口① |③---|
口口口口
89
③口口口 |①---|
口②口口 |②---|
①口口口 |③---|
口口口口
90
口口口口 |①---|
口③③口 |②---|
口②②口 |③---|
口①①口
91
①口口① |①---|
口口口口 |----|
口口口口 |----|
口口口口
92
口口口口 |①---|
口口口口 |----|
口①①口 |----|
口口口口
93
口口口口 |①---|
口③②① |②---|
口口口口 |③---|
口口口口
94
口口口口 |①---|
①口口口 |----|
口口口口 |----|
口口口口
95
口口口口 |①---|
口口口口 |②---|
①②③口 |③---|
口口口口
96
口口口口 |①---|
口口口口 |----|
口口口① |----|
口口口口
97
口③②① |①---|
口口口口 |②---|
口口口口 |③---|
口口口口
98
①口口口 |①---|
口口口口 |----|
口口口口 |----|
口口口口
99
口口口口 |①---|
口口口口 |②---|
口口口口 |③---|
①②③口
100
口口口口 |①---|
口口口口 |----|
口口口口 |----|
口口口①

accuracy: 100%
最終更新:2024年06月12日 13:49