アットウィキロゴ
Angritte
Lafale

ADVANCED

Level: 8
BPM: 155
Notes: 605

1
口口口口 |----|
口口口口 |----|
口口口口 |----|
口口口口
2
⑥口①口 |①-②-|
口⑤口口 |③-④-|
口口④口 |⑤-⑥-|
口②口③
3
口口口① |①---|
口口口② |②---|
口口口③ |③---|
口口口口
4
口①口⑥ |①-②-|
口口⑤口 |③-④-|
口④口口 |⑤-⑥-|
③口②口
5
①口口口 |①---|
②口口④ |②---|
③口口口 |③-④-|
口口口口
6
①口⑥口 |①-②-|
口⑤口口 |③-④-|
口口④口 |⑤-⑥-|
口③口②
7
①口口口 |①---|
口口口② |②---|
③口口口 |③---|
口口口口
8
口⑥口① |①-②-|
口口⑤口 |③-④-|
口④口口 |⑤-⑥-|
②口③口
9
口口口① |①---|
②口口口 |②---|
口口口③ |③---|
口口口口
10
口口口口 |①---|
口口口口 |----|
口口口口 |----|
口①①口
11
口口口口 |----|
口口口口 |----|
口口口口 |----|
口口口口
12
口⑥⑦③ |①--②|
②④⑤口 |--③-|
口口①口 |④⑤⑥⑦|
口口口口
13
①口口口 |①--②|
口⑤④② |--③-|
③⑦⑥口 |④⑤⑥⑦|
口口口口
14
口口口③ |①--②|
②④⑤口 |--③-|
口⑥⑦口 |④⑤⑥⑦|
口口①口
15
③⑦⑥口 |①--②|
口⑤④② |--③-|
口口口口 |④⑤⑥⑦|
口①口口
16
口口口① |①--②|
口口口③ |--③-|
②⑥⑦口 |④⑤⑥⑦|
口④⑤口
17
口口口② |①--②|
口①口口 |--③-|
口⑦⑥口 |④⑤⑥⑦|
③⑤④口
18
②口口口 |①--②|
口口①口 |--③-|
口口口口
口口口口

口④⑤口
口⑥⑦口
口口口③
口口口口 |④⑤⑥⑦|
19
⑦⑥⑤④ |①--②|
③口口口 |--③-|
口①口口 |④⑤⑥⑦|
口口口②
20
口口口口 |①--②|
⑥口③⑦ |--③-|
④口①⑤ |④⑤⑥⑦|
口②口口
21
①③口口 |①--②|
口口口口 |--③-|
⑦口②⑥ |④⑤⑥⑦|
⑤口口④
22
②口口口 |①--②|
口口口① |--③-|
口口口口
口口口口

口④口⑤
口⑥口⑦
口口口口
口口③口 |④⑤⑥⑦|
23
③口④口 |①--②|
⑤口⑥口 |--③④|
⑦①⑧口 |⑤⑥⑦⑧|
口口口②
24
口口口② |①--②|
口③口口 |--③-|
口⑦⑥口 |④⑤⑥⑦|
①⑤④口
25
④②口③ |①--②|
⑥口①⑤ |--③④|
⑧口口⑦ |⑤⑥⑦⑧|
口口口口
26
口②口口 |①--②|
口⑧⑦口 |--③④|
口⑥⑤口 |⑤⑥⑦⑧|
口④③①
27
口口①口 |①---|
口口口口 |----|
⑤④③② |②③④⑤|
口口口口
28
口口口口 |①---|
③口口④ |②-③-|
口口口口 |--④-|
②口①口
29
口①口口 |①---|
口口②口 |②---|
口③口口 |③---|
口口口口
30
④口口口 |①---|
口口口③ |②-③-|
口口口口 |--④-|
口口①②
31
口口①口 |①---|
口②口口 |②---|
口口④③ |③-④-|
口口口口
32
口口口口 |①---|
④口口② |②-③-|
口①口口 |--④-|
口口口③
33
口口口口 |①---|
口口④③ |②---|
口口口口 |③-④-|
①口②口
34
③口口④ |①---|
口①口口 |②-③-|
②口口口 |--④-|
口口口口
35
口口口口 |①---|
口口④③ |②---|
口口口① |③-④-|
口②口口
36
口②③口 |①---|
口①口④ |②-③-|
②①口③ |--④-|
口口④口
37
口口口口 |①---|
①③②口 |②---|
口③②口 |③---|
口①口口
38
口④口口 |①---|
③口口② |②-③-|
④口口口 |--④-|
①③②①
39
③口①④ |①---|
口③④口 |②---|
口②②① |③-④-|
口口口口
40
口①①口 |①---|
④口口② |②-③-|
口口口口 |--④-|
口口③口
41
③口口④ |①---|
口口口口 |②---|
③②②④ |③-④-|
口①口口
42
口口口口 |①---|
口①①③ |②-③-|
口口口口 |--④-|
口④②口
43
口口口口 |①---|
①口口口 |----|
口口口口 |----|
口口口口
44
⑥口①口 |①-②-|
口⑤口口 |③-④-|
口口④口 |⑤-⑥-|
口②口③
45
口口口① |①---|
口口口② |②---|
口口口③ |③---|
口口口口
46
口①口⑥ |①-②-|
口口⑤口 |③-④-|
口④口口 |⑤-⑥-|
③口②口
47
①口口口 |①---|
②口口④ |②---|
③口口口 |③-④-|
口口口口
48
①口⑥口 |①-②-|
口⑤口口 |③-④-|
口口④口 |⑤-⑥-|
口③口②
49
①口口口 |①---|
口口口② |②---|
③口口口 |③---|
口口口口
50
口⑥口① |①-②-|
口口⑤口 |③-④-|
口④口口 |⑤-⑥-|
②口③口
51
口口口① |①---|
②口口口 |②---|
口口口③ |③---|
口口口口
52
口①口⑥ |①-②-|
口⑤口口 |③-④-|
口口④口 |⑤-⑥-|
③口②口
53
①①口口 |①---|
口口②② |②---|
③③口口 |③---|
口口口口
54
⑥口①口 |①-②-|
口口口⑤ |③-④-|
口口③口 |⑤-⑥-|
④②口口
55
口口①① |①---|
②②④口 |②---|
口口口③ |③-④-|
口口口口
56
口①口⑥ |①-②-|
口⑤口口 |③-④-|
口口④口 |⑤-⑥-|
③口②口
57
①①口口 |①---|
口口②② |②---|
③③口口 |③---|
口口口口
58
⑥口①⑤ |①-②-|
口口口口 |③-④-|
口口口口 |⑤-⑥-|
④②口③
59
口口口口 |①---|
①①①① |②---|
②②②② |③---|
③③③③
60
口④口口 |①-②-|
②口①③ |③-④-|
口口⑤口 |⑤-⑥-|
⑥口口口
61
口⑤③① |①-②-|
口口口口 |③-④-|
口口口口 |⑤---|
口口④②
62
口口口口 |①-②-|
①⑤口④ |③-④-|
口口②口 |⑤-⑥-|
口③⑥口
63
①③⑤⑥ |①-②-|
口口口口 |③-④-|
口口口口 |⑤-⑥-|
②④口口
64
⑥口口口 |①-②-|
口口⑤③ |③-④-|
口④口① |⑤-⑥-|
②口口口
65
口⑤③① |①-②-|
口口口口 |③-④-|
口口口口 |⑤-⑥-|
口⑥④②
66
①口口口 |①-②-|
⑤口④口 |③-④-|
口③口口 |⑤-⑥-|
口口⑥②
67
①③⑤口 |①-②-|
口口口口 |③-④-|
口口口口 |⑤---|
②④口口
68
④口口口 |①-②-|
①口③① |③-④-|
口口⑤口 |⑤-⑥-|
②⑥口口
69
口⑤③① |①-②-|
口⑤③① |③-④-|
口口口口 |⑤---|
口口④②
70
口口④口 |①-②-|
①口口① |③-④-|
⑤③⑥口 |⑤-⑥-|
口口口②
71
①③⑤⑥ |①-②-|
①③⑤⑥ |③-④-|
口口口口 |⑤-⑥-|
②④口口
72
⑥④口口 |①-②-|
①口口口 |③-④-|
口口③⑤ |⑤-⑥-|
②口口口
73
口⑤③① |①-②-|
口⑤③① |③-④-|
口口口口 |⑤-⑥-|
口⑥④②
74
①口④口 |①-②-|
①口口口 |③-④-|
③⑤口口 |⑤-⑥-|
口口⑥②
75
①③⑤口 |①-②-|
①③⑤口 |③-④-|
口口口口 |⑤---|
②④口口
76
①口口口 |①-②③|
口⑦口口 |④-⑤⑥|
③⑨④⑧ |⑦-⑧⑨|
⑤口⑥②
77
口⑤③① |①-②-|
口⑤③① |③-④-|
口口口口 |⑤---|
口口④②
78
口口口口 |①-②③|
口口⑦③ |④-⑤⑥|
⑧④口① |⑦-⑧⑨|
②⑥⑨⑤
79
①③⑤⑥ |①-②-|
①③⑤⑥ |③-④-|
口口口口 |⑤-⑥-|
②④口口
80
⑨口口口 |①-②③|
⑦③口口 |④-⑤⑥|
①口⑧④ |⑦-⑧⑨|
⑤口⑥②
81
口⑤③① |①-②-|
口⑤③① |③-④-|
口口口口 |⑤-⑥-|
口⑥④②
82
①口口⑥ |①-②③|
①口④⑨ |④-⑤⑥|
⑤⑦口⑧ |⑦-⑧⑨|
③口口②
83
①③⑤口 |①-②-|
①③⑤口 |③-④-|
口口口口 |⑤---|
②④口口
84
口口口口 |①-②-|
口③⑥④ |③-④-|
①口口① |⑤-⑥-|
口⑤②口
85
①②口③ |①②-③|
④⑤口⑥ |④⑤-⑥|
口口⑧口 |⑦-⑧-|
⑦口口口
86
口口口口 |①-②-|
④⑥③口 |③-④-|
①口口① |⑤-⑥-|
口②⑤口
87
③口②① |①②-③|
⑥口⑤④ |④⑤-⑥|
口⑧口口 |⑦-⑧-|
口口口⑦
88
口口④① |①-②-|
口⑥口口 |③-④-|
③口①④ |⑤-⑥-|
⑤②口口
89
口④⑤① |①-②-|
口口③① |③-④-|
口②⑤口 |⑤-⑥-|
口⑥口③
90
②口口① |①②③④|
④口口③ |⑤⑥⑦⑧|
⑥⑫⑪⑤ |⑨⑩⑪⑫|
⑧⑩⑨⑦
91
口口口口 |①---|
②口①② |----|
②口口② |②---|
口口口口
92
⑥口①口 |①-②-|
口⑤口口 |③-④-|
口口④口 |⑤-⑥-|
口②口③
93
口口口① |①---|
口口口② |②---|
口口口③ |③---|
口口口口
94
口①口⑥ |①-②-|
口口⑤口 |③-④-|
口④口口 |⑤-⑥-|
③口②口
95
①口口口 |①---|
②口口④ |②---|
③口口口 |③-④-|
口口口口
96
①口⑥口 |①-②-|
口⑤口口 |③-④-|
口口④口 |⑤-⑥-|
口③口②
97
①口口口 |①---|
口口口② |②---|
③口口口 |③---|
口口口口
98
口⑥口① |①-②-|
口口⑤口 |③-④-|
口④口口 |⑤-⑥-|
②口③口
99
口口口① |①---|
②口口口 |②---|
口口口③ |③---|
口口口口
100
口口口口 |①---|
口口口口 |----|
口口口口 |----|
口①①口

accuracy: 100%
最終更新:2024年06月12日 13:50