アットウィキロゴ
Angritte
Lafale

EXTREME

Level: 10.1
BPM: 155
Notes: 862

1
口口口口 |----|
口口口口 |----|
口口口口 |----|
口口口口
2
口⑥口口 |①-②-|
①口口口 |③-④-|
⑤③口口 |⑤-⑥-|
②④口口
3
①口口口 |①---|
②口口口 |②---|
③口口口 |③---|
口口口口
4
口口⑥① |①-②-|
口口③⑤ |③-④-|
口口口口 |⑤-⑥-|
口口④②
5
口口口① |①---|
口口④口 |②---|
口口口② |③-④-|
口口口③
6
⑥①口口 |①-②-|
口③口口 |③-④-|
②⑤口口 |⑤-⑥-|
④口口口
7
口⑤④③ |①---|
②口口口 |②-----③④|
口口口口 |⑤---|
口①口口
8
口口⑥口 |①-②-|
口口③① |③-④-|
口口⑤④ |⑤-⑥-|
口口口②
9
口口口① |①---|
口口口② |②---|
口口口③ |③---|
口口口口
10
口口口口 |①---|
口口口口 |----|
口①①口 |----|
口①①口
11
口口口④ |----|
口⑤③口 |-①②③|
口②⑥口 |④⑤⑥⑦|
①口口⑦
12
⑤①④口 |①-②③|
③⑧口⑩ |-④⑤⑥|
⑦口⑨② |⑦⑧⑨⑩|
口口⑥口
13
⑤①口⑨ |①-②③|
③⑧⑩口 |-④⑤⑥|
⑦口口④ |⑦⑧⑨⑩|
口口⑥②
14
⑦③⑩口 |①-②③|
⑤⑧口② |-④⑤⑥|
口①⑨④ |⑦⑧⑨⑩|
口口⑥口
15
⑦③口⑥ |①-②③|
⑤口⑩⑨ |-④⑤⑥|
⑧①口④ |⑦⑧⑨⑩|
口口口②
16
口④③口 |①-②③|
⑩①口口 |-④⑤⑥|
口⑨⑧⑤ |⑦⑧⑨⑩|
②⑥口⑦
17
⑩④③口 |①-②③|
口⑨⑧① |-④⑤⑥|
②口口⑦ |⑦⑧⑨⑩|
口⑥⑤口
18
口口③① |①-②③|
口口⑩⑦ |-④⑤⑥|
②⑤⑥⑨ |⑦⑧⑨⑩|
④⑧口口
19
①①口口 |①---|
①口口口 |----|
口口口口
口口口口

口口③②
⑤④口口
口口口口
口口口口 |②③④⑤|
20
口④口⑧ |①-②③|
口⑩③⑦ |-④⑤⑥|
⑨口⑤① |⑦⑧⑨⑩|
⑥②①①
21
④⑩①口 |①-②③|
⑨口⑤口 |-④⑤⑥|
口口⑧③ |⑦⑧⑨⑩|
⑥②口⑦
22
口口①⑦ |①-②③|
口⑤⑥③ |-④⑤⑥|
④②⑩⑨ |⑦⑧⑨⑩|
⑧口口口
23
⑤口⑨⑩ |①-②③|
⑦⑧口⑥ |-④⑤⑥|
口③口口 |⑦⑧⑨⑩|
口①④②
24
⑩④口口 |①-②③|
⑥⑨③口 |-④⑤⑥|
①②⑧⑤ |⑦⑧⑨⑩|
①①口⑦
25
口口①① |①-②③|
口⑧②① |-④⑤⑥|
⑦⑤⑨⑥ |⑦⑧⑨⑩|
③口④⑩
26
①①③⑦ |①-②③|
①⑩⑥⑧ |④⑤⑥⑦|
⑪⑤⑨口 |⑧⑨⑩⑪|
④②口口
27
②③口口 |①---|
口口④⑤ |----|
口口口① |②③④⑤|
口口①①
28
口④④③ |①---|
②口口口 |②-③-|
口口口③ |--④-|
②①①口
29
①口口口 |①---|
口口①② |②---|
③②口口 |③---|
口口③口
30
口口③口 |①---|
②口口口 |②-③-|
口④④③ |--④-|
①②口①
31
②口口① |①---|
口①②③ |②---|
口口④口 |③-④-|
口口口口
32
口口口口 |①---|
②③口④ |②-③-|
③②④口 |--④-|
口①口口
33
口口口口 |①---|
口③①口 |②---|
口口④① |③-④-|
口②②口
34
③③口口 |①---|
口口口口 |②-③-|
②②④④ |--④-|
①口口①
35
口口①① |①---|
口③口② |②---|
②口④口 |③-④-|
口口口口
36
③④②① |①---|
口口口口 |②-③-|
口口口口 |--④-|
②④③①
37
口口口① |①---|
②③③② |②---|
②③③② |③---|
口口口①
38
①②④③ |①---|
口口口口 |②-③-|
口口口口 |--④-|
①③④②
39
①③口④ |①---|
口②②口 |②---|
口②②口 |③-④-|
①③口④
40
③口④⑥ |①-②-|
①口⑥④ |③-④-|
⑤③口② |⑤-⑥-|
①口口口
41
口⑤⑥口 |①-②-|
①口口口 |③-④-|
⑤③④⑥ |⑤-⑥-|
③①口②
42
口口口⑩ |①②③④|
①⑨⑧④ |⑤⑥⑦⑧|
⑪⑦⑫口 |⑨⑩⑪⑫|
⑤③②⑥
43
①①口口 |①---|
①口口口 |----|
口口口口 |----|
口口口口
44
口⑥口口 |①-②-|
①口口口 |③-④-|
⑤③口口 |⑤-⑥-|
②④口口
45
①口口口 |①---|
②口口口 |②---|
③口口口 |③---|
口口口口
46
口口⑥① |①-②-|
口口③⑤ |③-④-|
口口口口 |⑤-⑥-|
口口④②
47
口口口① |①---|
口口④口 |②---|
口口口② |③-④-|
口口口③
48
⑥①口口 |①-②-|
口③口口 |③-④-|
②⑤口口 |⑤-⑥-|
④口口口
49
口⑤④③ |①---|
②口口口 |②-----③④|
口口口口 |⑤---|
口①口口
50
口口⑥口 |①-②-|
口口③① |③-④-|
口口⑤④ |⑤-⑥-|
口口口②
51
口口口① |①---|
口口口② |②---|
口口口③ |③---|
口口口口
52
④①①⑤ |①-②-|
③⑥口口 |③-④-|
⑤口口口 |⑤-⑥-|
口②口③
53
口①⑤口 |①-②-|
③口口② |③-④-|
⑤口口④ |⑤---|
口口①口
54
⑤口⑥④ |①-②-|
口①③口 |③-④-|
口口①⑤ |⑤-⑥-|
口③②口
55
⑤口口口 |①-②-|
口②口① |③-④-|
口①③⑥ |⑤-⑥-|
④口口⑤
56
⑥①⑤口 |①-②-|
口④口① |③-④-|
②③口口 |⑤-⑥-|
⑤口③口
57
口口口⑤ |①-②-|
①口②口 |③-④-|
口③④口 |⑤---|
⑤口口①
58
口口④⑥ |①-②-|
③①口① |③-④-|
口口⑤③ |⑤-⑥-|
⑤口②口
59
①②⑥口 |①--②③④|
口③⑦① |⑤--⑥⑦⑧|
口④⑧口 |⑨---|
口⑤⑨口
60
口⑩⑦⑪ |①-②③|
①口口③ |④⑤⑥⑦|
⑧④口⑤ |⑧⑨⑩⑪|
②⑥⑨口
61
①口口口 |①--②③④|
⑤④③② |⑤--⑥⑦⑧|
⑨⑧⑦⑥ |⑨---|
口口口口
62
⑨③⑩① |①-②③|
⑪口④⑧ |④⑤⑥⑦|
口口口口 |⑧⑨⑩⑪|
⑦⑤⑥②
63
口口口① |①--②③④|
口口⑩口 |⑤--⑥⑦⑧|
②③④⑤ |⑨-⑩-|
⑥⑦⑧⑨
64
⑩①⑦⑪ |①-②③|
口④口③ |④⑤⑥⑦|
②⑧口⑤ |⑧⑨⑩⑪|
⑥口口⑨
65
口⑫⑪⑩ |①--②③④|
⑤④③② |⑤--⑥⑦⑧|
⑨⑧⑦⑥ |⑨--⑩⑪⑫|
口①口口
66
①口口口 |①-②③|
③口④口 |④⑤⑥⑦|
⑦口口⑥
⑤口口②

⑪口⑩口
口口口口
口口⑧口
口⑨口口 |⑧⑨⑩⑪|
67
口口口① |①--②③④|
②③④⑤ |⑤--⑥⑦⑧|
⑥⑦⑧⑨ |⑨---|
口口口口
68
⑥①①口 |①-②③|
④口口③ |④⑤⑥⑦|
口口口口
口②⑦⑤

口口⑪口
口⑩⑨口
⑧口口口
口口口口 |⑧⑨⑩⑪|
69
⑥口口② |①--②③④|
⑦口口③ |⑤--⑥⑦⑧|
⑧①口④ |⑨---|
⑨口口⑤
70
⑨⑪⑩⑥ |①-②③|
口③④口 |④⑤⑥⑦|
⑦①①⑧ |⑧⑨⑩⑪|
口⑤②口
71
口口口口 |①--②③④|
②③④⑤ |⑤--⑥⑦⑧|
口口①⑩ |⑨-⑩-|
⑨⑧⑦⑥
72
⑩①①⑪ |①-②③|
口⑥③⑦ |④⑤⑥⑦|
②④口⑨ |⑧⑨⑩⑪|
⑧口口⑤
73
口⑨⑤口 |①--②③④|
①⑧④⑫ |⑤--⑥⑦⑧|
口⑦③⑪ |⑨--⑩⑪⑫|
口⑥②⑩
74
④⑩⑤① |①-②③|
⑥口口⑪ |④⑤⑥⑦|
口口③口 |⑧⑨⑩⑪|
②⑧⑦⑨
75
⑥口口② |①--②③④|
口⑦③口 |⑤--⑥⑦⑧|
①④⑧口 |⑨---|
⑤口口⑨
76
口⑩⑤⑪ |①-②③|
④口③① |④⑤⑥⑦|
②⑧⑦① |⑧⑨⑩⑪|
⑥口口⑨
77
⑤口口口 |①--②③④|
⑤④③② |⑤--⑥⑦⑧|
⑨⑧⑦⑥ |⑨---|
⑨①口口
78
口④①① |①-②③|
口⑥口⑤ |④⑤⑥⑦|
口口口口
口②③⑦

⑩口口⑪
口口口口
⑧口口⑨
口口口口 |⑧⑨⑩⑪|
79
口⑥②口 |①--②③④|
①⑦③口 |⑤--⑥⑦⑧|
⑪⑧④⑫ |⑨⑩⑪⑫|
⑨⑨⑤⑩
80
③⑤⑥② |①-②③|
①⑨⑧⑩ |④⑤⑥⑦|
⑪⑦④口 |⑧⑨⑩⑪|
口口口口
81
口⑧⑦⑥ |①--②③④|
口口口口 |⑤--⑥⑦⑧|
口口口①
⑤④③②

⑨口口口
⑨口口⑩
⑪口口⑫
口口口口 |⑨⑩⑪⑫|
82
⑨⑪⑩口 |①-②③|
⑦①④⑧ |④⑤⑥⑦|
口③口口 |⑧⑨⑩⑪|
口⑤⑥②
83
口口口① |①--②③④|
⑥⑦⑧⑨ |⑤--⑥⑦⑧|
⑤④③② |⑨---|
⑥⑦⑧⑨
84
①③④② |①②③④|
口⑦口口 |⑤⑥⑦⑧|
⑤口⑧⑥ |⑨⑩⑪⑫|
⑨⑩⑪⑫
85
①⑤④② |①②-③|
①⑤④② |④⑤-⑥|
③③⑥⑥ |⑦⑧⑨⑩|
⑦⑧⑨⑩
86
③⑤④⑧ |①②③④|
①⑦⑥② |⑤⑥⑦⑧|
⑨⑩⑪⑫ |⑨⑩⑪⑫|
口口口口
87
③③⑥⑥ |①②-③|
①⑤④② |④⑤-⑥|
⑦⑧⑨⑩ |⑦⑧⑨⑩|
①⑤④②
88
⑦⑪口口 |①②③④|
①⑤⑧④ |⑤⑥⑦⑧|
口口⑩⑫ |⑨⑩⑪⑫|
③⑨⑥②
89
口口⑤① |①②③④|
②⑦口④ |⑤⑥⑦⑧|
⑥③口口
口口口⑧

⑩⑪口⑫
口口口口
口口⑨口
口口口口 |⑨⑩⑪⑫|
90
⑨⑩⑪⑫ |①②③④|
口口③④ |⑤⑥⑦⑧|
口②口⑧ |⑨⑩⑪⑫|
①⑤⑥⑦
91
⑬⑭⑮⑯ |①②③④⑤⑥|
①②⑦⑧ |⑦⑧⑨⑩⑪⑫|
③④⑨⑩ |⑬⑭⑮⑯--|
⑤⑥⑪⑫
92
口⑥口口 |①-②-|
①口口口 |③-④-|
⑤③口口 |⑤-⑥-|
②④口口
93
①口口口 |①---|
②口口口 |②---|
③口口口 |③---|
口口口口
94
口口⑥① |①-②-|
口口③⑤ |③-④-|
口口口口 |⑤-⑥-|
口口④②
95
口口口① |①---|
口口④口 |②---|
口口口② |③-④-|
口口口③
96
⑥①口口 |①-②-|
口③口口 |③-④-|
②⑤口口 |⑤-⑥-|
④口口口
97
口⑤④③ |①---|
②口口口 |②-----③④|
口口口口 |⑤---|
口①口口
98
口口⑥口 |①-②-|
口口③① |③-④-|
口口⑤④ |⑤-⑥-|
口口口②
99
口口口① |①---|
口口口② |②---|
口口口③ |③---|
口口口口
100
口口口口 |①---|
口口口口 |----|
口口口口 |----|
口①①口

accuracy: 100%
最終更新:2024年06月12日 13:50