アットウィキロゴ
Magical electrica
こふ

BASIC

Level: 5
BPM: 156
Notes: 320

1
口口口口 |----|
口口口口 |----|
口口口口 |----|
口口口口 |----|
2
口口口口 |①---|
口①口口 |----|
口口口口 |----|
口口口口 |----|
3
口口口口 |----|
口口口口 |----|
口口口口 |----|
口口口口 |----|
4
口口口口 |①---|
口口①口 |----|
口口口口 |----|
口口口口 |----|
5
口口口口 |----|
口口口口 |----|
口口口口 |----|
口口口口 |----|
6
口口口口 |①---|
口口口口 |----|
口①口口 |----|
口口口口 |----|
7
口口口口 |----|
口口口口 |----|
口口口口 |----|
口口口口 |----|
8
口口口口 |①---|
口口口口 |----|
口口①口 |----|
口口口口 |----|
9
口口口口 |----|
口口口口 |----|
口口口口 |----|
口口口口 |----|
10
①②③④ |①---|
口口口口 |②---|
口口口口 |③---|
口口口口 |④---|
11
口口口口 |①---|
①②③④ |②---|
口口口口 |③---|
口口口口 |④---|
12
口口口口 |①---|
口口口口 |②---|
①②③④ |③---|
口口口口 |④---|
13
口口口口 |①---|
口口口口 |②---|
口口口口 |③---|
①②③④ |④---|
14
口①②口 |①---|
口③④口 |②---|
口口口口 |③---|
口口口口 |④---|
15
口口口口 |①---|
口口口口 |②---|
口①②口 |③---|
口③④口 |④---|
16
口口口④ |①---|
③口口口 |②---|
口口口② |③---|
①口口口 |④---|
17
口口口口 |①---|
口②②口 |----|
口①①口 |②---|
口口口口 |----|
18
①②③④ |①---|
口口口口 |②---|
口口口口 |③---|
口口口口 |④---|
19
口口口口 |①---|
④口口① |②---|
口③②口 |③---|
口口口口 |④---|
20
口口口口 |①---|
④口口口 |②---|
口口口口 |③---|
口③②① |④---|
21
②口口① |①---|
口口③口 |②---|
口口④口 |③---|
口口口口 |④---|
22
口④口口 |①---|
②口口口 |②---|
口口口③ |③---|
口口①口 |④---|
23
口口口① |①---|
口口②口 |②---|
口③口口 |③---|
④口口口 |④---|
24
口口口口 |①---|
口④③口 |②---|
口②①口 |③---|
口口口口 |④---|
25
①口口① |----|
口口口口 |----|
口口口口 |----|
口口口口 |①---|
26
口口口口 |①---|
②口③口 |②---|
口④口口 |③-④-|
口口⑤① |⑤---|
27
口口⑥口 |①---|
①⑤口口 |②---|
口口④口 |③-④-|
口③口② |⑤-⑥-|
28
口口口口 |①---|
口③口② |②---|
口口④口 |③-④-|
①⑤口口 |⑤---|
29
口⑥口口 |①---|
口口⑤① |②---|
口④口口 |③-④-|
②口③口 |⑤-⑥-|
30
口口口口 |①---|
②口③口 |②---|
口④口口 |③-④-|
口口⑤① |⑤---|
31
口口⑥口 |①---|
①⑤口口 |②---|
口口④口 |③-④-|
口③口② |⑤-⑥-|
32
口口⑥口 |①---|
口⑤口② |②---|
口口④口 |③-④-|
①③口口 |⑤-⑥-|
33
③口口③ |①---|
①口口② |②---|
①口口② |③---|
口口口口 |----|
34
口口口口 |①---|
口④③② |----|
口口口口 |②-③-|
口①①口 |④---|
35
口口口口 |①---|
②③④口 |----|
口口口口 |②-③-|
口①①口 |④---|
36
②③口口 |①---|
口口口口 |②---|
口①①口 |----|
口口口口 |③---|
37
口口①② |----|
口口口口 |①---|
口口口口 |----|
口口口口 |②---|
38
口口口口 |①---|
口④③② |----|
口口口口 |②-③-|
口①①口 |④---|
39
口①①口 |①---|
口口口口 |----|
②③④⑤ |②-③-|
口口口口 |④-⑤-|
40
①②口④ |①---|
口口口口 |②---|
口③③口 |③---|
口口口口 |④---|
41
口口口口 |①---|
①口口① |----|
①口口① |----|
口口口口 |----|
42
口口口口 |----|
①②口口 |①---|
口口口口 |----|
口口口口 |②---|
43
口口口口 |----|
口口①② |①---|
口口口口 |----|
口口口口 |②---|
44
口口口口 |----|
口口口口 |①---|
①②口口 |----|
口口口口 |②---|
45
口口口口 |----|
口口口口 |①---|
口口①② |----|
口口口口 |②---|
46
口③④口 |①---|
口口口② |②---|
①口口口 |③-④-|
口口口口 |----|
47
口口口口 |①---|
①口口口 |②---|
口口口② |③-④-|
口③④口 |----|
48
口④③口 |①---|
②口口口 |②---|
口口口① |③-④-|
口口口口 |----|
49
口口口口 |①---|
口口口① |②---|
②口口口 |③-④-|
⑤④③口 |⑤---|
50
口①①口 |①---|
口②②口 |----|
口口口口 |②---|
口口口口 |----|
51
口口口口 |①---|
口口口口 |----|
口①①口 |②---|
口②②口 |----|
52
口口口口 |①---|
口④③② |----|
口①①口 |②-③-|
口口口口 |④---|
53
口口口口 |①---|
②③④⑤ |----|
口口口口 |②-③-|
①口口① |④-⑤-|
54
口口口口 |①---|
口口口口 |----|
口④③② |②-③-|
口①①口 |④---|
55
①口口① |①---|
②③④⑤ |----|
口口口口 |②-③-|
口口口口 |④-⑤-|
56
口④③② |①---|
口口口口 |----|
口口口口 |②-③-|
口①①口 |④---|
57
口口口口 |①---|
①口口① |----|
②③④⑤ |②-③-|
口口口口 |④-⑤-|
58
⑤④③② |①---|
口口口口 |----|
口口口口 |②-③-|
口①①口 |④-⑤-|
59
口口口口 |①---|
②口口② |----|
口①①口 |②---|
②口口② |----|
60
口②口口 |①---|
口口④口 |②---|
口⑤口③ |③-④-|
口口①口 |⑤---|
61
口①口口 |①---|
口④口⑥ |②---|
③口⑤口 |③-④-|
口口②口 |⑤-⑥-|
62
口口②口 |①---|
口④口口 |②---|
③口⑤口 |③-④-|
口①口口 |⑤---|
63
口口①口 |①---|
⑥口④口 |②---|
口⑤口③ |③-④-|
口②口口 |⑤-⑥-|
64
口②口口 |①---|
口口④口 |②---|
口⑤口③ |③-④-|
口口①口 |⑤---|
65
口①口口 |①---|
口④口⑥ |②---|
③口⑤口 |③-④-|
口口②口 |⑤-⑥-|
66
口口②⑥ |①---|
口口⑤口 |②---|
口④口口 |③-④-|
③①口口 |⑤-⑥-|
67
①①口口 |①---|
②②口口 |②---|
③③口口 |③---|
口口口口 |----|
68
口口②② |①---|
口③口口 |②---|
口口④口 |③-④-|
口⑤①① |⑤---|
69
口口①① |①---|
口④口⑥ |②---|
③口⑤口 |③-④-|
口口②② |⑤-⑥-|
70
②②口口 |①---|
口口③口 |②---|
口④口口 |③-④-|
①①⑤口 |⑤---|
71
①①口口 |①---|
⑥口④口 |②---|
口⑤口③ |③-④-|
②②口口 |⑤-⑥-|
72
口口②② |①---|
口③口口 |②---|
口口④口 |③-④-|
口⑤①① |⑤---|
73
口口①① |①---|
口④口⑥ |②---|
③口⑤口 |③-④-|
口口②② |⑤-⑥-|
74
口口口口 |①---|
口口口口 |----|
口②口口 |②---|
口①口口 |----|
75
口②②口 |①---|
口①口口 |----|
口口口口 |②---|
口口口口 |----|

accuracy: 100%
最終更新:2024年07月20日 02:00