アットウィキロゴ
Magical electrica
こふ

ADVANCED

Level: 8
BPM: 156
Notes: 506

1
口口口口 |----|
口口口口 |----|
口口口口 |----|
口口口口 |----|
2
①口口① |①---|
口口口口 |----|
口口口口 |----|
口口口口 |----|
3
口口口口 |----|
口口口口 |----|
口口口口 |----|
口口口口 |----|
4
口口口口 |①---|
①口口① |----|
口口口口 |----|
口口口口 |----|
5
口口口口 |----|
口口口口 |----|
口口口口 |----|
口口口口 |----|
6
口口口口 |①---|
口口口口 |----|
①口口① |----|
口口口口 |----|
7
口口口口 |----|
口口口口 |----|
口口口口 |----|
口口口口 |----|
8
口口口口 |①---|
口口口口 |----|
口口口口 |----|
①口口① |----|
9
口口口口 |----|
口口口口 |----|
口口口口 |----|
口口口口 |----|
10
①口口口 |①---|
②口口口 |②---|
③口口口 |③---|
④口口口 |④---|
11
口④口口 |①---|
口③口口 |②---|
口②口口 |③---|
口①口口 |④---|
12
口口①口 |①---|
口口②口 |②---|
口口③口 |③---|
口口④口 |④---|
13
口口口④ |①---|
口口口③ |②---|
口口口② |③---|
口口口① |④---|
14
③②①口 |①---|
④口口口 |②---|
口口口口 |③---|
口口口口 |④---|
15
口口口口 |①---|
口口口口 |②---|
①口口口 |③---|
②③④口 |④---|
16
口口口口 |①-②-|
口⑤④③ |③-④-|
口⑥口② |⑤-⑥-|
口⑦⑧① |⑦-⑧-|
17
③③③③ |①---|
口口口口 |----|
②口①② |②---|
口口口口 |③---|
18
口口口口 |①---|
①⑤⑥② |②---|
口③④口 |③-④-|
口①②口 |⑤-⑥-|
19
①②③④ |①-②-|
口口口⑥ |③-④-|
⑤口口口 |⑤---|
口口口⑥ |⑥---|
20
②口口④ |①---|
口口④口 |②---|
口口口口 |③---|
口①③口 |④---|
21
口①②口 |①---|
⑥⑤④③ |②---|
①口口② |③-④-|
口口口口 |⑤-⑥-|
22
口口⑤口 |①---|
口④口口 |②---|
②口③① |③-④-|
口②①口 |⑤---|
23
口口口口 |①-②-|
口⑥⑤④ |③---|
①②③口 |④-⑤-|
口口口口 |⑥---|
24
②口口① |①---|
口口口口 |②---|
口②①口
口口口口

口口③口
口④口口
口口⑤口 |③-④-|
口口口口 |⑤---|
25
④口口口 |①-②-|
③口口⑦ |③-④-|
②口口⑥ |⑤-⑥-|
①口口⑤ |⑦---|
26
②⑤④口 |①--②|
口⑦⑥口 |--③-|
③口⑧口 |④⑤⑥⑦|
口⑨①口 |⑧-⑨-|
27
①口口⑥ |①--②|
口口口⑤ |--③-|
③口口④ |④-⑤-|
口口②口 |⑥---|
28
②⑤④口 |①--②|
口⑦⑥口 |--③-|
③口⑧口 |④⑤⑥⑦|
口⑨①口 |⑧-⑨-|
29
①口口口 |①--②|
④⑤⑥⑦ |--③-|
③口口口 |④-⑤-|
口口②口 |⑥-⑦-|
30
口④⑤② |①--②|
口⑥⑦口 |--③-|
口⑧口③ |④⑤⑥⑦|
口①⑨口 |⑧-⑨-|
31
⑥口口① |①--②|
⑤口口口 |--③-|
④口口③ |④-⑤-|
口②口口 |⑥---|
32
口口口② |①--②|
口口口口 |--③-|
口口口③
口①口口

口④⑤口
口⑥⑦口
口⑧⑨口 |④⑤⑥⑦|
口⑩⑪口 |⑧⑨⑩⑪|
33
①②③口 |①--②|
口口口口 |--③-|
④口口④ |④---|
口口口口 |----|
34
口口口口 |①--②|
口⑤④② |--③-|
口⑦⑥口 |④⑤⑥⑦|
口③⑧① |⑧---|
35
口口口口 |①--②|
①口口⑥ |--③-|
③口口⑤ |④-⑤-|
口②口④ |⑥---|
36
口②④口 |①---|
②口口④ |②---|
口③①口 |③---|
口口口口 |④---|
37
③④⑤⑥ |①---|
口①②口 |②---|
口口口口 |③-④-|
口口口口 |⑤-⑥-|
38
口口口口 |①--②|
②④⑤口 |--③-|
口⑥⑦口 |④⑤⑥⑦|
①⑧③口 |⑧---|
39
口口口口 |①--②|
⑥口口① |--③-|
⑤口口口 |④-⑤-|
④口②③ |⑥---|
40
④③②① |①-②-|
口口口口 |③-④-|
口⑤⑤口 |⑤---|
口口口口 |----|
41
口口口口 |①-②-|
⑧⑦⑥⑤ |③-④-|
口④③口 |⑤⑥⑦⑧|
②口口① |----|
42
④口口② |①---|
口口口口 |②---|
④口口② |③---|
口③①口 |④---|
43
口③①口 |①---|
④口口② |②---|
口口口口 |③---|
④口口② |④---|
44
④口口② |①---|
口④②口 |②---|
口口口口 |③---|
③口口① |④---|
45
口④②口 |①---|
口口口口 |②---|
④③①② |③---|
口口口口 |④---|
46
⑤口口④ |①--②|
口③③口 |--③-|
⑤②②④ |④-⑤-|
口①①口 |----|
47
④口口⑤ |①--②|
口③③口 |--③-|
④②②⑤ |④-⑤-|
口①①口 |----|
48
口①①口 |①--②|
⑤②②④ |--③-|
口③③口 |④-⑤-|
⑤口口④ |----|
49
口①①口 |①--②|
⑥②②⑥ |--③-|
⑤③③⑤ |④--⑤|
④口口④ |--⑥-|
50
①口③② |①-②③|
口口口口 |----|
④口⑥⑤ |④-⑤⑥|
口口口口 |----|
51
①口③② |①-②③|
口口④口 |-④-⑤|
⑥口⑤⑦ |⑥-⑦-|
口口口口 |----|
52
口口口口 |①--②|
口⑤④② |--③-|
口⑦⑥口 |④⑤⑥⑦|
口③⑧① |⑧---|
53
口口口口 |①--②|
①口口⑥ |--③-|
③口口⑤ |④-⑤-|
口②口④ |⑥---|
54
口口口口 |①--②|
②④⑤口 |--③-|
口⑥⑦口 |④⑤⑥⑦|
①⑧③口 |⑧---|
55
⑦口口口 |①--②|
⑥口口① |--③-|
⑤口口口 |④-⑤-|
④口②③ |⑥-⑦-|
56
口⑤④② |①--②|
口⑦⑥口 |--③-|
口③⑧① |④⑤⑥⑦|
口口口口 |⑧---|
57
①口口⑥ |①--②|
③口口⑤ |--③-|
口②口④ |④-⑤-|
口口口口 |⑥---|
58
②④⑤口 |①--②|
口⑥⑦口 |--③-|
①⑧⑨③ |④⑤⑥⑦|
口⑩⑪口 |⑧⑨⑩⑪|
59
①②③口 |①--②|
口⑤⑤口 |--③-|
④⑤⑤④ |④---|
口口口口 |⑤---|
60
②口⑤④ |①--②|
⑨口⑦⑥ |--③-|
口口口⑧ |④⑤⑥⑦|
③①①口 |⑧-⑨-|
61
口口口③ |①--②|
口②口口 |--③-|
④⑤⑥⑦ |④-⑤-|
口①①口 |⑥-⑦-|
62
②口⑤④ |①--②|
⑨口⑦⑥ |--③-|
口口口⑧ |④⑤⑥⑦|
③①①口 |⑧-⑨-|
63
口②口口 |①--②|
口口口口 |--③-|
④⑤⑥⑦ |④-⑤-|
口①①③ |⑥-⑦-|
64
④⑤口② |①--②|
⑥⑦口⑨ |--③-|
⑧口口口 |④⑤⑥⑦|
口①①③ |⑧-⑨-|
65
③口口口 |①--②|
口口②口 |--③-|
⑦⑥⑤④ |④-⑤-|
口①①口 |⑥-⑦-|
66
口口口② |①--②|
口口口口 |--③-|
口口口口
口①①③

口④⑤口
口⑥⑦口
口⑧⑨口 |④⑤⑥⑦|
口⑩⑪口 |⑧⑨⑩⑪|
67
①②③口 |①--②|
口口口口 |--③-|
④口口④ |④---|
口口口口 |----|
68
②口⑤④ |①--②|
⑨口⑦⑥ |--③-|
③⑩口⑧ |④⑤⑥⑦|
口①①口 |⑧-⑨⑩|
69
口②口口 |①--②|
⑧⑦⑥⑤ |--③④|
口口④口 |⑤-⑥-|
①口口③ |⑦-⑧-|
70
②口⑤④ |①--②|
口口⑦⑥ |--③-|
③⑩口⑧ |④⑤⑥⑦|
⑨①①口 |⑧-⑨⑩|
71
口⑧口口 |①--②|
①口⑦③ |--③④|
⑥口④口 |⑤-⑥-|
口②口⑤ |⑦-⑧-|
72
④⑤口② |①--②|
⑥⑦口⑨ |--③-|
⑧口⑩③ |④⑤⑥⑦|
口①①口 |⑧-⑨⑩|
73
口口②口 |①--②|
③口口口 |--③④|
口④口口
口口口①

口口口口
口口口口
口口口口 |⑤-⑥-|
⑤⑥⑦⑧ |⑦-⑧-|
74
②④⑤口 |①--②|
口⑥⑦口 |--③-|
①⑧⑨③ |④⑤⑥⑦|
口⑩⑪口 |⑧⑨⑩⑪|
75
①②③口 |①--②|
④口口④ |--③-|
④口口④ |④---|
口口口口 |----|

accuracy: 100%
最終更新:2024年07月20日 02:00