アットウィキロゴ
Magical electrica
こふ

EXTREME

Level: 9.6
BPM: 156
Notes: 705

1
口口口口 |----|
口口口口 |----|
口口口口 |----|
口口口口 |----|
2
口口口口 |①---|
口①①口 |----|
口①①口 |----|
口口口口 |----|
3
口口口口 |----|
口口口口 |----|
口口口口 |----|
口口口口 |----|
4
口口口口 |①---|
①口口① |----|
①口口① |----|
口口口口 |----|
5
口口口口 |----|
口口口口 |----|
口口口口 |----|
口口口口 |----|
6
口口口口 |①---|
口①①口 |----|
口①①口 |----|
口口口口 |----|
7
口口口口 |----|
口口口口 |----|
口口口口 |----|
口口口口 |----|
8
口①①口 |①---|
口口口口 |----|
口口口口 |----|
口①①口 |----|
9
口口口口 |----|
口口口口 |----|
口口口口 |----|
口口口口 |----|
10
①口口口 |①---|
②口口口 |②---|
③口口口 |③---|
④口口口 |④---|
11
口④口口 |①---|
口③口口 |②---|
口②口口 |③---|
口①口口 |④---|
12
口口①口 |①---|
口口②口 |②---|
口口③口 |③---|
口口④口 |④---|
13
口口口④ |①---|
口口口③ |②---|
口口口② |③---|
口口口① |④---|
14
③②①口 |①---|
④口口口 |②---|
口口口口 |③---|
口口口口 |④---|
15
口口口口 |①---|
口口口口 |②---|
①口口口 |③---|
②③④口 |④---|
16
⑦⑥⑤④ |①-②-|
⑧口⑫③ |③-④-|
⑨⑩⑪② |⑤⑥⑦⑧|
口口口① |⑨⑩⑪⑫|
17
口③③口 |①---|
口①口口 |----|
③口口③ |②---|
口②②口 |③---|
18
②口口④ |①-②-|
⑪⑦⑧⑫ |③-④-|
⑤口口⑥ |⑤⑥⑦⑧|
①⑨⑩③ |⑨⑩⑪⑫|
19
①②③④ |①②③④|
口⑪⑪口 |⑤⑥⑦⑧|
⑤⑥⑦⑧ |⑨-⑩-|
⑨口口⑩ |⑪---|
20
⑦④⑥② |①-②-|
口口口⑧ |③-④-|
⑨口口口 |⑤-⑥-|
口③①⑤ |⑦⑧⑨-|
21
口口口③ |①-②-|
④口口口 |③④⑤-|
口口①⑤
②口口口

口⑥⑩口
口⑦⑪口
口⑧⑫口 |⑥⑦⑧⑨|
口⑨⑬口 |⑩⑪⑫⑬|
22
②口口④ |①-②-|
口口口口 |③-④-|
口口口口
①口口③

⑨口口口
口⑧⑦⑥
口口口口 |⑤-⑥⑦|
口⑤口口 |⑧-⑨-|
23
口口①⑤ |①-②③|
④口口⑥ |④-⑤⑥|
③口口口
②口口口

⑬⑫⑪口
口⑩口口
口口⑨⑦ |⑦-⑧⑨|
口⑧口口 |⑩⑪⑫⑬|
24
⑩口口⑤ |①-②③|
②口口⑦ |④-⑤-|
口③⑧口 |⑥-⑦⑧|
④⑥①⑨ |⑨-⑩-|
25
口②①口 |①②③④|
⑥口⑤口 |⑤⑥⑦⑧|
口口⑦③
④⑧口口

口口⑬⑬
口⑫口⑪
⑩口口口 |⑨⑩⑪⑫|
口口⑨口 |⑬---|
26
②口口口 |①--②|
口口口③ |--③-|
口②口口
①口③①

⑨⑥口口
⑤口⑦口
④⑩⑧口 |④⑤⑥⑦|
口口口口 |⑧-⑨⑩|
27
⑦⑦⑧③ |①--②|
口口口⑥ |--③④|
口⑨④⑥ |⑤-⑥-|
⑤②②① |⑦-⑧⑨|
28
口口口② |①--②|
③口口口 |--③-|
口口②口
口③口①

口口⑥口
口⑦口⑤
口⑧⑩④ |④⑤⑥⑦|
⑨口口口 |⑧-⑨⑩|
29
③口口① |①--②|
口口口口 |--③④|
口④口口
口②②口

口⑧⑧⑦
⑥口⑦口
⑥口口口 |⑤-⑥-|
口口口⑤ |⑦-⑧-|
30
②口口口 |①--②|
口口口③ |--③-|
口②口口
①①③口

⑨⑥口口
⑤口⑦口
④⑩⑧口 |④⑤⑥⑦|
口口口口 |⑧-⑨⑩|
31
⑦⑦口③ |①--②|
口口⑧⑥ |--③④|
口⑨④⑥ |⑤-⑥-|
⑤②②① |⑦-⑧⑨|
32
口⑩口② |①--②|
③口⑨⑤ |--③-|
口⑧②④ |④⑤-⑥|
⑥③⑦① |⑦⑧⑨⑩|
33
②口①① |①--②|
②⑦⑥⑤ |--③-|
口口口③ |④-⑤-|
④④口③ |⑥-⑦-|
34
口②⑤④ |①--②|
①口⑦⑥ |--③-|
⑨口口⑧ |④⑤⑥⑦|
⑩口③口 |⑧-⑨⑩|
35
③口口口 |①--②|
④⑤⑧口 |--③④|
口⑦②口 |⑤-⑥-|
口①口⑥ |⑦-⑧-|
36
⑧⑨③② |①-②③|
⑪口口⑤ |④⑤-⑥|
④⑦①⑩ |⑦-⑧⑨|
⑫④⑩⑥ |⑩⑪-⑫|
37
口口口口 |①-②③|
口②③④ |④-⑤⑥|
口口①口
口⑤⑥口

⑦⑧⑨⑩
口口口口
⑦⑧⑨⑩ |⑦-⑧-|
口口口口 |⑨-⑩-|
38
④⑤口口 |①--②|
⑥⑦②口 |--③-|
⑧口口口 |④⑤⑥⑦|
①③⑨⑩ |⑧-⑨⑩|
39
口口口③ |①--②|
口口⑤④ |--③④|
口②⑦① |⑤-⑥-|
⑥⑧⑨口 |⑦-⑧⑨|
40
①②③④ |①-②-|
①②③④ |③-④-|
口口口口
口口口口

⑥口口口
口口口口
⑤口口⑤ |⑤---|
口口口口 |⑥---|
41
⑧②⑤口 |①②③④|
口⑩⑨③ |⑤⑥⑦⑧|
⑥⑫⑪⑦ |⑨⑩⑪⑫|
口④①口 |----|
42
口⑧口⑥ |①-②-|
④口口② |③-④-|
口⑦⑤口 |⑤-⑥-|
口③口① |⑦-⑧-|
43
⑧口⑥口 |①-②-|
口④②口 |③-④-|
⑦口口⑤ |⑤-⑥-|
③口①口 |⑦-⑧-|
44
口⑧⑥口 |①-②-|
④口②口 |③-④-|
⑦口⑤口 |⑤-⑥-|
③口口① |⑦-⑧-|
45
④口口② |①-②-|
口⑧口⑥ |③-④-|
口③口① |⑤-⑥-|
口⑦⑤口 |⑦-⑧-|
46
④①③② |①-②③|
⑥⑧⑨⑦ |-④-⑤|
①⑩⑪口 |⑥-⑦-|
⑥口⑤⑦ |⑧⑨⑩⑪|
47
④①③② |①-②③|
口口口口 |-④-⑤|
①口口口
口口⑤口

口⑧口口
⑥⑨口⑦
口⑩口口 |⑥-⑦-|
⑥⑪口⑦ |⑧⑨⑩⑪--|
48
④口③② |①-②③|
口口⑤口 |-④-⑤|
①口口口
口口口口

口口口口
⑥口口⑪
⑩⑨⑧⑦ |⑥--⑦⑧⑨|
⑥口口⑪ |⑩-⑪-|
49
④口③② |①-②③|
⑥①⑤⑦ |-④-⑤|
口⑧口口 |⑥-⑦-|
⑥⑩⑨⑦ |⑧⑨⑩-|
50
①口②③ |①-②③|
④口⑤⑥ |----|
①口②③ |④-⑤⑥|
④口⑤⑥ |----|
51
①口②③ |①-②③|
④⑥⑤口 |-④-⑤|
①④②③ |⑥-⑦-|
⑦⑥⑤⑦ |----|
52
口②口口 |①--②|
口口口口 |--③-|
①口口口
口口③口

口口⑤④
口口⑦⑥
⑨口口⑧ |④⑤⑥⑦|
⑩口口口 |⑧-⑨⑩|
53
③口口口 |①--②|
④口口口 |--③④|
口口②口
口①口口

口⑦口口
口⑤口口
口口⑨⑧ |⑤-⑥-|
口口⑥口 |⑦-⑧⑨|
54
④⑤②口 |①--②|
⑥⑦口口 |--③-|
⑧①口口 |④⑤⑥⑦|
口③⑨⑩ |⑧-⑨⑩|
55
口口⑧③ |①--②|
口⑦⑤④ |--③④|
口②口① |⑤-⑥-|
口口⑥口 |⑦-⑧-|
56
口②口口 |①--②|
口口口口 |--③-|
①口口口
口口③口

口口⑤④
口口⑦⑥
⑨口口⑧ |④⑤⑥⑦|
⑩口口口 |⑧-⑨⑩|
57
③口口口 |①--②|
④口口口 |--③④|
口口②口
口①口口

口⑦口口
口⑤口口
口口⑨⑧ |⑤-⑥-|
口口⑥口 |⑦-⑧⑨|
58
口口②口 |①--②|
口口口口 |--③-|
口①口口
口③口口

④⑤口口
口口口口
⑩⑨⑧⑦ |④⑤-⑥|
⑥口口口 |⑦⑧⑨⑩|
59
②⑤⑤① |①--②|
③②①③ |--③-|
⑤口口⑤ |④---|
口④④口 |⑤---|
60
②口口口 |①--②|
口口口③ |--③-|
口②口口
①口③①

⑨⑥口口
⑤口⑦口
④口⑧口 |④⑤⑥⑦|
⑩口口口 |⑧-⑨⑩|
61
⑦口③口 |①--②|
口口⑨⑧ |--③④|
⑤口④⑥ |⑤-⑥-|
口②②① |⑦-⑧⑨|
62
口口口② |①--②|
③①口口 |--③-|
口口②口
口③口口

口口⑥口
口⑦口⑤
口⑧口④ |④⑤⑥⑦|
⑨口口⑩ |⑧-⑨⑩|
63
口③口① |①--②|
口⑧口口 |--③④|
⑥④⑦⑤ |⑤-⑥-|
口②②口 |⑦-⑧-|
64
②口口口 |①--②|
口口口③ |--③-|
口②口口
①口③①

⑨⑥口口
⑤口⑦口
④口⑧口 |④⑤⑥⑦|
⑩口口口 |⑧-⑨⑩|
65
口⑥③口 |①--②|
⑧⑨口口 |--③④|
⑤口④⑦ |⑤-⑥-|
口②②① |⑦-⑧⑨|
66
⑧⑨③② |①-②③|
⑪口①⑤ |④⑤-⑥|
④⑦口⑩ |⑦-⑧⑨|
⑫④⑩⑥ |⑩⑪-⑫|
67
口口口口 |①-②③|
口②③④ |④-⑤⑥|
口口①口
口⑤⑥口

⑦⑧⑨⑩
口口口口
⑦⑧⑨⑩ |⑦-⑧-|
口口口口 |⑨-⑩-|
68
②口口口 |①--②|
口②口口 |--③-|
口口口口
①③③①

⑨⑥⑥口
⑤口口⑦
④口口⑧ |④⑤⑥⑦|
⑩口口口 |⑧-⑨⑩|
69
口⑥③口 |①--②|
⑧⑨口⑦ |--③④|
⑤口④口 |⑤-⑥-|
口②②① |⑦-⑧⑨|
70
口口口② |①--②|
口口②口 |--③-|
口口口口
口③③①

口⑥⑥口
⑦口口⑤
⑧口口④ |④⑤⑥⑦|
⑨口口⑩ |⑧-⑨⑩|
71
口口③① |①--②|
口口口口 |--③④|
口口④口
口②②口

口口口⑧
⑦口口口
⑤口口⑥ |⑤-⑥-|
口口口口 |⑦-⑧-|
72
②口口口 |①--②|
口②口口 |--③-|
口口口口
①③③①

⑨⑥⑥口
⑤口口⑦
④口口⑧ |④⑤⑥⑦|
⑩口口口 |⑧-⑨⑩|
73
口⑦③口 |①--②|
口口⑨⑧ |--③④|
⑤口④⑥ |⑤-⑥-|
口②②① |⑦-⑧⑨|
74
②口口口 |①--②|
口①口口 |--③-|
口口口口
口③口口

口口⑤④
⑦⑧⑨⑩
口口⑥口 |④⑤-⑥|
口口口口 |⑦⑧⑨⑩|
75
①口口② |①--②|
口口口口 |--③-|
③④④口 |④---|
口口口口 |----|

accuracy: 100%
最終更新:2024年07月20日 02:00