アットウィキロゴ
BPM:160
1
⑥⑦②① |①②-③|
⑨⑩⑤④ |-④⑤-|
□□□□ |⑥⑦-⑧|
③□□⑧ |-⑨⑩-|
2
⑥⑦②① |①②-③|
□∨⑤④ |-④⑤-|
□□⑧□ |⑥⑦-⑧|
③⑨□□ |-⑨--|
3
⑥⑦②① |①②-③|
⑨⑩⑤④ |-④⑤-|
□□□□ |⑥⑦-⑧|
③□□⑧ |-⑨⑩-|

□□□□
□□□□
□□□□
□1□□
4
⑥⑦②① |①②-③|
□∨⑤④ |-④⑤-|
□□⑧□ |⑥⑦-⑧|
③⑨□□ |-⑨--|
5
⑥⑦②① |①②-③|
⑨⑩⑤④ |-④⑤-|
□□□□ |⑥⑦-⑧|
③□□⑧ |-⑨⑩-|

□□□□
□□□□
□□□□
□1□□
6
⑥⑦②① |①②-③|
□∨⑤④ |-④⑤-|
□□⑧□ |⑥⑦-⑧|
③⑨□□ |-⑨--|
7
⑥⑦②① |①②-③|
⑨⑩⑤④ |-④⑤-|
□□□□ |⑥⑦-⑧|
③□□⑧ |-⑨⑩-|

□□□□
□□□□
□□□□
□1□□
8
⑥⑦②① |①②-③|
□∨⑤④ |-④⑤-|
□□⑧□ |⑥⑦-⑧|
③⑨□□ |-⑨--|
9
⑥⑦③② |①---|
⑧⑨⑤④ |②③④⑤|
①□□① |----|
□□□□ |⑥⑦⑧⑨|

□□□□
□□□□
□□□□
□1□□
10
□□□□ |----|
□□□□ |①②③④|
⑤⑥②① |----|
⑦⑧④③ |⑤⑥⑦⑧|
11
⑤⑥②① |----|
⑦⑧④③ |①②③④|
□□□□ |----|
□□□□ |⑤⑥⑦⑧|
12
□□□□ |----|
□□□□ |①②③④|
⑤⑥②① |----|
⑦⑧④③ |⑤⑥⑦⑧|
13
⑤⑥②① |①②③④|
⑦⑧④③ |⑤⑥⑦⑧|
⑬⑭⑩⑨ |⑨⑩⑪⑫|
⑮⑯⑫⑪ |⑬⑭⑮⑯|
14
⑤⑥②① |①②③④|
⑦⑧④③ |⑤⑥⑦⑧|
⑬⑭⑩⑨ |⑨⑩⑪⑫|
⑮⑯⑫⑪ |⑬⑭⑮⑯|
15
⑥⑤④③ |①②③④|
⑦⑧①② |⑤⑥⑦⑧|
⑮⑯⑨⑩ |⑨⑩⑪⑫|
⑭⑬⑫⑪ |⑬⑭⑮⑯|
16
⑥⑦②① |①②-③|
③□⑤④ |-④⑤-|
□□⑧□ |⑥⑦-⑧|
□⑨□□ |-⑨--|
17
⑤□②③ |①---|
①④□□ |②--③|
□⑤③② |④---|
□□□□ |⑤---|
18
④⑤□□ |①---|
①□②③ |②--③|
□□⑥□ |④⑤-⑥|
□⑦③② |-⑦--|
19
□□②③ |①---|
①④□□ |②--③|
□⑤③② |④---|
⑤□□□ |--⑤-|
20
④⑤□□ |①---|
①□②③ |②--③|
□□⑥□ |④⑤-⑥|
□⑦③② |-⑦--|
21
□□②③ |①---|
①④□□ |②--③|
□□③② |④---|
□□□□ |----|
22
④⑤□□ |①---|
①□②③ |②--③|
□①⑥□ |④⑤-⑥|
①⑦③② |-⑦--|
23
⑤⑥②① |①②-③|
⑧□□□ |-④--|
□③⑦□ |⑤⑥-⑦|
□□④□ |-⑧--|
24
⑥⑦②① |①②-③|
□□⑤④ |-④⑤-|
□□⑧□ |⑥⑦-⑧|
③⑨□□ |-⑨--|
25
□⑥□③ |①-②-|
②□⑤⑧ |③-④⑤|
□④□□ |⑥-⑦-|
①⑨□⑦ |⑧-⑨-|
26
⑥⑦□③ |①-②-|
②□⑤□ |③-④⑤|
□④⑧□ |⑥⑦-⑧|
□⑨①□ |-⑨--|
27
□⑥□③ |①-②-|
②□⑤⑨ |③-④⑤|
⑧④□□ |⑥-⑦-|
□□①⑦ |⑧-⑨-|
28
⑥⑦□③ |①-②-|
②□⑤□ |③-④⑤|
□④⑧□ |⑥⑦-⑧|
①⑨□□ |-⑨--|
29
□⑥□③ |①-②-|
②□⑤□ |③-④⑤|
□④□□ |⑥-⑦-|
□□①□ |⑧-⑨-|

□□□□
□⑧□□
□□□□
□□⑨⑦
30
⑥⑦□③ |①-②-|
□□⑤① |③-④⑤|
②④⑧□ |⑥⑦-⑧|
□⑨□□ |-⑨--|
31
⑤⑥②① |①②-③|
□□□□ |-④--|
□③⑦□ |⑤⑥-⑦|
□□④□ |----|
32
□□②① |①②-③|
□□⑤④ |-④⑤-|
□⑥⑦⑧ |⑥-⑦-|
③⑥⑦⑧ |⑧---|
33
□□③② |①---|
□①□□ |②---|
□□□□ |----|
□∧□□ |③---|
34
②①∨② |----|
□□□□ |①---|
□□③□ |----|
□□□□ |②-③-|

□□□□
□2□□
□□□□
□□□□
35
□□□□ |----|
①□②∨ |①---|
②□□□ |----|
□□□③ |②-③-|

□□□□
□□□□
□□2□
□□□□
36
□∨□□ |----|
□□□② |①---|
□③□□ |----|
①②□□ |②-③-|

□□□□
□□□□
□□□□
□□□2
37
□□□□ |----|
□□□□ |①---|
□□□□ |----|
□□①② |②---|
38
②□∨□ |----|
□□□② |①---|
□□③① |----|
□□□□ |②-③-|

□□□□
□□□□
□2□□
□□□□
39
∨□②① |----|
□②□□ |①---|
③□□□ |----|
□□□□ |②-③-|

□□□□
□□□□
□□2□
□□□□
40
②①□□ |----|
□□□② |①---|
□□□□ |----|
>□□③ |②-③-|

□□□□
□□□□
2□□□
□□□□
41
□□□□ |①---|
①①□□ |②---|
□③④⑤ |③--④|
②②□□ |--⑤-|
42
①①□□ |①---|
□③④⑤ |②---|
②②□□ |③--④|
□□□□ |--⑤-|
43
①□□③ |①-②-|
⑤⑥⑦□ |③-④-|
□②④□ |⑤--⑥|
⑤⑥⑦□ |--⑦-|

□□□□
□□□□
□□□□
□□□1
44
③□□① |①-②-|
⑤□□⑤ |③-④-|
□④②□ |⑤---|
⑤⑥⑥⑤ |⑥---|
45
□②①⑤ |①②③④|
⑩④③□ |⑤---|
□⑧⑨⑤ |⑥⑦⑧⑨|
⑩⑥⑦□ |⑩---|
46
③④②① |①-②-|
□③①□ |③-④-|
⑦□□⑤ |⑤-⑥-|
⑧⑦⑤⑥ |⑦-⑧-|
47
⑥⑤④③ |①②③④|
⑦⑧①② |⑤⑥⑦⑧|
⑮⑯⑨⑩ |⑨⑩⑪⑫|
⑭⑬⑫⑪ |⑬⑭⑮⑯|
48
□②①① |①---|
②⑤⑤① |②---|
□⑤⑤□ |③-④-|
④□□③ |⑤---|
49
⑥②③□ |①②③④|
④□□⑤ |⑤⑥⑦⑧|
⑧□□⑦ |⑨⑩⑪⑫|
□□①□ |⑬⑭⑮⑯|

□⑭⑮⑨
□□□□
□⑩□□
⑯⑫⑬⑪
50
□□□□ |①②③④|
⑤⑥②① |⑤⑥⑦⑧|
⑧⑦③④ |⑨⑩⑪⑫|
□□□□ |⑬⑭⑮⑯|

⑭⑫⑮⑨
□□□⑬
□□□□
⑯⑩⑪□
51
□□□□ |①②③④|
③②①□ |⑤⑥⑦⑧|
⑥⑤④□ |⑨⑩⑪⑫|
□⑧⑦□ |⑬⑭⑮⑯|

□⑩⑬⑪
⑯⑭⑮□
□□□⑨
⑫□□□
52
②⑧□□ |①②③④|
□□□③ |⑤⑥⑦⑧|
④□⑤□ |⑨⑩⑪⑫|
□⑥⑦① |⑬⑭⑮⑯|

□□⑨⑯
⑫□⑪⑮ 
□□□⑭
⑩□□⑬
53
①□⑥□ |①②③④|
□⑦⑧□ |⑤⑥⑦⑧|
③□②□ |⑨⑩⑪⑫|
□⑤④□ |⑬⑭⑮⑯|

□⑮□□
⑪□□⑭
□⑬⑯⑩
⑨□□⑫
54
①□⑥② |①②③④|
⑦□④□ |⑤⑥⑦⑧|
③□□□ |⑨⑩⑪⑫|
□⑤⑧□ |⑬---|

⑬⑬□□
□□□⑩
□⑨□□
⑪□□⑫
55
⑬⑪⑬⑩ |①②③④|
③②①□ |⑤⑥⑦⑧|
⑥⑤④□ |⑨⑩⑪⑫|
⑨⑧⑦⑫ |⑬---|
56
□□□□ |①②③④|
⑥⑦③② |⑤⑥⑦⑧|
⑤⑧④① |⑨⑩⑪⑫|
□□□□ |⑬⑭⑮⑯|

⑯⑫□⑨
□□⑮□
□□□□
⑩⑭⑪⑬
57
□□①□ |①②③④|
②□□⑤ |⑤---|
□④③⑤ |⑥⑦⑧⑨|
□□□□ |⑩⑪⑫⑬|

⑩⑥⑬⑦
□□⑨□
⑧□□□
□⑫⑪□
58
□□□□ |①②③④|
⑤①⑧④ |⑤⑥⑦⑧|
⑨⑦⑥⑩ |⑨⑩-⑪|
③□□② |--⑫-|

⑪⑪⑪⑪
□□□□
□□□□
⑫⑫⑫⑫
59
⑨⑬⑩⑧ |①②③④|
①⑦⑥② |⑤⑥⑦⑧|
⑤③④□ |⑨⑩⑪⑫|
⑪□⑫□ |⑬---|
60
□□□□ |①②③④|
⑧⑦③④ |⑤⑥⑦⑧|
⑤⑥②① |⑨⑩⑪⑫|
□□□□ |⑬⑭⑮⑯|

⑩⑯⑪□
□□⑮□
□□□⑬
⑫⑭□⑨
61
⑥□⑦① |①②③④|
□④□□ |⑤⑥⑦⑧|
□②□□ |⑨⑩⑪⑫|
⑧□③⑤ |⑬⑭⑮⑯|

□□□□
⑬⑯⑫⑨
⑭⑮⑪⑩
□□□□
62
⑧④□① |①②③④|
□□□⑤ |⑤⑥⑦⑧|
□□⑦□ |⑨⑩⑪⑫|
⑥②③□ |⑬⑭⑮⑯|

□□⑨□
⑩⑯⑬□
⑭⑫□⑪
□□□⑮
63
⑧⑥□① |①②③④|
□□□⑤ |⑤⑥⑦⑧|
□□③□ |⑨⑩⑪⑫|
④②⑦□ |⑬⑭⑮⑯|

□□⑪□
⑯⑭□□
⑫⑩⑮⑨
□□□⑬
64
⑧②⑦① |①②③④|
⑭⑩⑬⑨ |⑤⑥⑦⑧|
⑫⑥⑪⑤ |⑨⑩⑪⑫|
④⑯③⑮ |⑬⑭⑮⑯|
65
>□□① |①---|
□□□□ |②---|
□□□□ |③-④-|
□□□□ |⑤---|

③②②□
□⑤⑤□
□□□④
□□□□
66
□□□□ |①---|
□□④① |②---|
□⑤⑤□ |③-④-|
③②②□ |⑤---|

□□□5
□□□□
□□□□
□□□□
67
①□□< |①-②-|
□□□□ |③---|
□□□□ |④-⑤-|
□□□□ |⑥---|

□③③□
□⑥⑥④
⑤□□②
□□□□
68
□②□□ |①-②-|
□□□⑤ |③---|
④⑥⑥① |④-⑤-|
□③③□ |⑥---|

6□□□
□□□□
□□□□
□□□□
69
>□□① |①-②-|
□□□□ |③-④-|
□□□□ |⑤-⑥-|
□□□□ |⑦---|

□③③□
②⑦⑦□
□□⑥④
⑤□□□
70
□□④□ |①-②-|
②⑤□① |③-④-|
□⑦⑦⑥ |⑤-⑥-|
□③③□ |⑦---|

□□□7
□□□□
□□□□
□□□□
71
①□□< |①-②-|
□□□□ |③-④-|
□□□□ |⑤-⑥-|
□□□□ |⑦-⑧-|

□③③⑧
⑥④□②
□⑦⑦□
□□□⑤
72
□□□□ |①-②-|
□③③④ |③-④-|
①□□② |⑤-⑥-|
□□□□ |⑦-⑧-|

□□□□
⑤□□□
⑧□□□
□⑦⑦⑥

7□□□
□□□□
□□□□
□□□□
73
□①①□ |①---|
□①①□ |----|
□①①□ |----|
□□□□ |----|
74
□□□□ |----|
□□□□ |----|
□□□□ |----|
□□□□ |----|
75
□□□□ |----|
□□□□ |----|
□□□□ |----|
□□□□ |----|
76
□□□□ |----|
□□□□ |----|
□□□□ |----|
□□□□ |----|
77
□□□□ |----|
□□□□ |----|
□□□□ |----|
□□□□ |----|
最終更新:2024年01月23日 17:31