アットウィキロゴ
BPM:190

1
□□□□ |----|
□□□□ |----|
□□□□ |----|
□□□□ |----|
2
□□□① |①---|
□□□□ |②-③-|
□□□□ |--④-|
①□□< |⑤-⑥-|

□□③□
□□□③
②□□□
□②□□

□□□□
⑥⑤④□
>□□⑥
□□□□

□□□□
□□□□
□□□□
6□□□
3
□①②③ |----|
□□□□ |--①②|
□□□□ |③---|
□□□□ |----|
4
□□□□ |①---|
①□□< |----|
□□①□ |----|
□①□□ |②---|

□□□□
□□②□
□□□□
②□②□

□□□□
□□□□
□□□1
□□□□
5
>□□① |①②------|
□□□□ |----|
□□□□ |----|
□□□□ |----|

□□□2
1□□□
□□□□
□□□□
6
□□□① |①---|
□□□□ |②-③-|
□□□□ |--④-|
①□□< |--⑤-|

□□③□
□□□③
②□□□
□②□④

□□□⑤
⑤□□□
>□□⑤
□□□□

□□□□
□□□□
□□□□
5□□□
7
③④□② |----|
□①□□ |--①-|
①□□□ |----|
□□□□ |②-③④|

□□□□
□□□□
□□□2
□□□□
8
□□□□ |①---|
□②①① |--②-|
②②①□ |----|
□□□□ |--③-|

□□□□
□□□□
□□□③
□□③□

□□□□
□□□□
□□□□
>□□③
9
①②③④ |----|
□□□□ |-①②③|
□□□□ |④---|
□□□□ |----|
10
□□□□ |①-②-|
①□<③ |③-④-|
□□②□ |⑤---|
□□①□ |⑥-⑦-|

□□□⑥
□□⑦□
□□□⑤
⑤□<□

□□□□
4□□□
□□□□
7□□1
11
□□□□ |①②③④|
□□□□ |⑤-⑥-|
□①□< |⑦---|
□□①□ |--⑧-|

□□□□
□⑤□③
⑥□④⑥
□□□⑤

□□⑦□
□□□□
□□□□
□⑦□<

□□□□
□□□□
□2□□
□8□□
12
□□□□ |①-②-|
①□<□ |③-④-|
□□□□ |⑤-⑥-|
□□①□ |⑦-⑧⑨|

□□⑦③
□□②□
□□□⑥
⑤□<⑤

□□□□
□□□□
□⑨⑨□
□⑧⑧□

□□□□
4□□□
□□□□
7□□□
13
④□<④ |①---|
□①①② |②-③-|
②□□< |④---|
□□□③ |----|
14
□□①□ |①---|
①□<□ |②-③④|
□□①② |⑤---|
□□□□ |⑥-⑦-|

□⑤□<
□③④⑤
□□□□
□□⑥□

17□□
3□□□
1□□□
□□□□
15
□□□□ |①-②-|
□□□□ |③-④-|
□①□< |⑤⑥⑦⑧|
□①□□ |--⑨-|

⑤□<□
□□□□
□□②□
□□□③

□□⑦⑧
□□⑥□
□□□□
□□□□

9□□□
□□□□
□4□□
□□□□
16
□□□□ |①---|
□□□□ |②-③-|
①□<□ |④---⑤-|
□□①□ |--⑥---|

□④④□
□⑤□□
□⑥③④
□□□②

□□□□
□□□□
3□□□
□□□□
17
□□□□ |①---|
□□□□ |----|
□□□□ |----|
①□□< |----|

□□□□
□□□□
□□□□
□①□□
18
□⑥②① |①---|
□⑦③□ |----|
□⑧④① |②③④⑤|
□⑨⑤□ |⑥⑦⑧⑨|
19
□□□① |①---|
□□□□ |----|
□□□① |----|
□□□□ |----|
20
④□□④ |①---|
□□□□ |--②③|
□③②□ |④---|
□□□① |----|

□□□□
□□□□
□□□□
1□□□
21
⑪⑨⑨⑫ |①②③④|
⑧②③⑤ |⑤⑥⑦⑧|
①⑦⑥④ |⑨-⑩-|
⑩□□□ |⑪-⑫-|
22
□⑦□□ |①-②-|
④⑤⑥③ |③-④⑤|
②□⑦□ |⑥---|
□①①□ |⑦---|
23
⑧⑪⑥⑨ |①②③④|
⑫⑦⑩⑤ |⑤⑥⑦⑧|
⑬②⑮④ |⑨⑩⑪⑫|
①⑭③⑯ |⑬⑭⑮⑯|
24
□□□□ |①---|
□□□□ |----|
□□□□ |----|
①□<□ |②---|

□□□□
□□□□
□□□□
2□□□
25
②∨∨② |①---|
□□□□ |----|
□①①□ |②---|
□□□□ |③④⑤⑥|

□□□□
⑥⑤④③
□□□□
□□□□

□□□□
□□□□
□22□
□□□□
26
⑤□②⑤ |①---|
□□□□ |②-③④|
□④□② |⑤---|
③①①□ |----|
27
□□□□ |①---|
①<>② |②---|
①<>② |③-④-|
□□□□ |⑤---|

□⑤⑤□
□③□□
□□④□
□□□□

□□□□
2□□3
2□□3
□□□□
28
①□□③ |①-②-|
□□□□ |③-④-|
∧□□∧ |⑤--⑥⑦⑧|
□□□□ |⑨-⑩⑪|

□□□□
⑥⑦⑧⑨
②□□④
⑩⑤⑤⑪

2□□4
□□□□
□□□□
□□□□
29
□①①□ |①---|
□□□□ |----|
□□□□ |②③④⑤|
□□□□ |⑥⑦⑧⑨|

⑧⑨□□
⑦②③□
⑥⑤④□
□□□□
30
□□①② |①②③④|
□□□③ |⑤⑥⑦⑧|
□□□④ |⑨---|
⑧⑦⑥⑤ |--⑩-|

□□□□
□⑨⑨□
□□□□
□∧∧□

□□□□
□⑩⑩□
□□□□
□□□□
31
②□□② |①---|
④□⑤③ |②---|
④①①③ |③-④-|
□⑤□□ |⑤---|
32
>□□⑤ |①---|
□①□④ |②-③-④-|
□□①③ |⑤-⑥-|
□□□② |----|

□□⑤□
□□□□
□□□□
□□□□

□□□6
□□□□
□□□□
□□□□
33
②<>④ |①---|
□①①□ |----|
②①①④ |②-③-|
□□□□ |④-⑤-|

3□□5
□□□□
□□□□
□□□□
34
⑤□⑤□ |①---|
②②□□ |②-③④|
□□④□ |⑤---|
①①□③ |----|
35
⑯⑫⑧④ |①②③④|
⑮⑪⑦③ |⑤⑥⑦⑧|
⑭⑩⑥② |⑨⑩⑪⑫|
⑨⑬①⑤ |⑬⑭⑮⑯|
36
□□□□ |①---|
>□□① |----|
>□□① |②---|
□□□□ |----|

□□□□
□②②□
□②②□
□□□□

□□□□
□□□2
□□□2
□□□□
37
□∨∨□ |①---|
□□□□ |--②-|
□□□□ |③---|
□①①□ |④---⑤-|

□③③□
□□□□
□□□□
□□□□

□>□④
⑤□□□
□□□□
□□□□

□□□5
□□□□
□□□□
□22□
38
□□□□ |①---②-|
□>□② |③---|
□①③□ |④-⑤-|
□□□□ |----|

□□□□
∨④④∨
□□□□
⑤□□⑤

□□□□
□□□3
□□□□
□□□□
39
③□⑤□ |①---|
□④□⑥ |②---|
①②⑦① |③④⑤⑥|
□□②□ |⑦---|

□□□□
□□□□
□□□□
1□□1
40
□□□① |①---|
□□□□ |----|
□□□∧ |②---|
①□□< |----|

□□□2
□□□□
□□□□
2□□□
41
①②③④ |①-②-|
⑥□⑨⑧ |③-④-|
①②③□ |⑤-⑥-|
□⑦⑤□ |⑦-⑧⑨|
42
③⑤⑤□ |①-②-|
□①□□ |③-④-|
□④□□ |⑤---|
②□□□ |----|
43
□□□□ |①-②-|
①②③□ |③-④⑤|
□□□□ |⑥⑦⑧⑨|
①②③□ |⑩⑪⑫-|

⑨⑤⑩④
□□□□
⑦⑪⑧⑫
□□□⑥
44
□□□□ |①-②-|
⑥②③⑥ |③-④⑤|
□□□□ |⑥---|
①④⑤□ |----|
45
④①②③ |①-②-|
□□⑧⑥ |③-④-|
□①②③ |⑤-⑥-|
□⑤⑦□ |⑦-⑧-|
46
□②④□ |①-②-|
□□□□ |③-④-|
□⑤⑤□ |⑤---|
①□□③ |----|
47
□□④□ |①-②-|
□①②③ |③-④-|
□□□□ |⑤-⑥-|
□①②③ |⑦-⑧-|

□□□□
⑥⑧□□
□□□⑤
⑦□□□
48
①②③④ |①-②-|
□□□□ |③-④-|
①②③④ |⑤---|
□⑤⑤□ |----|
49
①②③⑥ |①-②-|
①②③⑤ |③-④-|
□□□④ |--⑤-|
□□□② |--⑥-|
50
⑤□②⑥ |①-②-|
①②③□ |③-④-|
①②③□ |--⑤-|
□⑤⑥④ |⑥---|
51
⑥□□□ |①-②-|
⑤①②③ |③-④-|
④①②③ |--⑤-|
②□□□ |--⑥-|
52
□②⑦⑧ |①-②-|
⑤⑥□□ |③-④-|
⑨①②③ |⑤⑥⑦⑧|
④①②③ |⑨---|
53
③④□□ |①-②-|
□□④② |③-④-|
□①①□ |⑤-⑥-|
□③□② |⑦⑧⑨-|

□□⑥⑦
⑤⑨□□
⑥□⑨⑧
⑤□⑦□
54
③⑦□□ |①②③④|
⑧□⑥④ |⑤⑥⑦⑧|
□①□□ |⑨⑩⑪⑫|
□⑤□② |⑬⑭⑮⑯|

□□⑨⑬
□⑭□□
⑫⑯⑮□
⑩□⑪□
55
□□□□ |①---|
□□□□ |----|
□□□□ |----|
□□□① |----|
56
⑦⑦⑤④ |①-②-|
⑦⑥⑦③ |③-④-|
⑦⑦⑤② |⑤-⑥-|
④③②① |⑦---|
57
□□∨□ |①---|
□□□□ |--②-|
>□□① |③④⑤⑥|
□□①□ |⑦⑧⑨⑩|

⑩□⑥□
⑨□⑤□
⑧□④□
③⑦□□

□□□□
□□□□
□□□2
□□2□
58
□④⑫⑧ |①②③④|
□③⑪⑦ |⑤⑥⑦⑧|
□②⑩⑥ |⑨⑩⑪⑫|
⑨□⑤① |⑬-⑭-|

□□□□
⑬□□<
⑬□□<
□□□□

□□□□
⑭□□□
⑭□□□
□□□□
59
□□⑨⑤ |①---|
□①⑧④ |②③④⑤|
□①⑦③ |⑥⑦⑧⑨|
□②⑩⑥ |⑩-⑪⑫|

□□□□
□□□□
□⑫□□
⑪□□□
60
④②⑦⑥ |①②-③|
①⑤⑨⑧ |④-⑤-|
④□□⑩ |⑥⑦⑧⑨|
□③□□ |⑩---|
61
②⑥⑩□ |①-②-|
①⑤⑨□ |③④⑤⑥|
②④⑧□ |⑦⑧⑨⑩|
①⑦③⑪ |⑪---|
62
□⑧⑫④ |①②③④|
□⑦⑪③ |⑤⑥⑦⑧|
□⑥⑩② |⑨⑩⑪⑫|
①⑨⑤□ |⑬-⑭-|

□□□□
⑬□□<
⑬□□<
□□□□

□□□□
⑭□□□
⑭□□□
□□□□
63
②⑥□⑤ |①②③④|
□□□③ |⑤⑥⑦⑧|
□④□□ |⑨⑩⑪⑫|
⑧□⑦① |⑬⑭⑮⑯|

□□⑪□
⑯⑫⑨□
⑭□⑬□
□⑩□⑮
64
□□□□ |①---|
□>□① |----|
□>□① |----|
□□□□ |②---|

□□□□
□□□2
□□□2
□□□□
65
③②①⑧ |①--②|
④④□⑦ |--③-|
③②①⑥ |④---|
□□⑤□ |⑤⑥⑦⑧|
66
⑧⑫④□ |①②③④|
⑦⑪③□ |⑤⑥⑦⑧|
⑥⑩②□ |⑨⑩⑪⑫|
①⑤□⑨ |⑬-⑭-|

□□□□
>□□⑬
>□□⑬
□□□□

□□□□
□□□⑭
□□□⑭
□□□□
67
⑤⑨□□ |①---|
④⑧①□ |②③④⑤|
③⑦①□ |⑥⑦⑧⑨|
⑥⑩②□ |⑩-⑪⑫|

□□□□
□□□□
□□⑫□
□□□⑪
68
⑥⑦②④ |①②-③|
⑧⑨⑤① |④-⑤-|
⑩□□④ |⑥⑦⑧⑨|
□□③□ |⑩---|
69
□⑩⑥② |①-②-|
□⑨⑤① |③④⑤⑥|
□⑧④② |⑦⑧⑨⑩|
⑪③⑦① |⑪---|
70
④⑫⑧□ |①②③④|
③⑪⑦□ |⑤⑥⑦⑧|
②⑩⑥□ |⑨⑩⑪⑫|
□⑤⑨① |⑬-⑭-|

□□□□
>□□⑬
>□□⑬
□□□□

□□□□
□□□⑭
□□□⑭
□□□□
71
⑤□⑥② |①②③④|
③□□□ |⑤⑥⑦⑧|
□□④□ |⑨⑩⑪⑫|
①⑦□⑧ |⑬⑭⑮⑯|

□⑪□□
□⑨⑫⑯
□⑬□⑭
⑮□⑩□
72
□□□□ |①---|
①□<□ |----|
①□<□ |----|
□□□□ |②---|

□□□□
2□□□
2□□□
□□□□
73
③□□③ |①---|
□∨∨□ |②---|
□□□□ |③---|
□①①□ |----|

□□□□
□□□□
□□□□
□22□
74
⑯⑭⑫⑩ |①②③④|
⑧⑥④② |⑤⑥⑦⑧|
⑮⑬⑪⑨ |⑨⑩⑪⑫|
⑦⑤③① |⑬⑭⑮⑯|
75
□□□③ |①---|
□□∨∨ |②---|
□□□□ |③---|
②□①① |④⑤⑥⑦|

□□□□
□⑤④□
□⑥⑦□
□□□□

□□□□
□□□□
□□□□
□□22
76
□③②□ |①②③④|
④∨∨① |⑤---|
□□□□ |⑥-⑦-|
□⑤⑤□ |⑧⑨--|

⑥□□⑧
□□⑨□
□□□□
⑦□□□

□□□□
□□□□
□□□□
□66□
77
□□□□ |①---|
□□□□ |②---|
①□<① |③---|
□□□□ |④---|

□□③□
□□□□
□□③□
④□□<

□□□□
□□□□
2□□□
□□□□
78
□□□□ |①-②-|
②□□< |----|
②□□① |③---④-|
□□①□ |--⑤---|

④□⑤□
□③③□
□④□⑤
□□□□

□□□□
3□□□
□□□□
1□□□
79
□⑤⑪⑩ |①②③④|
⑬⑨⑦⑥ |⑤-⑥⑦|
⑫⑧④⑭ |⑧⑨⑩⑪|
①②③□ |⑫⑬⑭-|
80
②④□□ |①②③④|
□□⑥⑧ |⑤⑥⑦⑧|
□⑨⑨□ |⑨---|
①③⑤⑦ |----|
81
□□□□ |①---|
□□□∨ |②---|
①□□① |③④⑤⑥|
∧□□□ |⑦⑧⑨⑩|

□④⑥□
⑧□□⑩
□□□□
⑦③⑤⑨

□□□□
□□□□
2□□2
□□□□
82
⑧⑦⑥⑤ |①-②-|
⑨①③⑯ |③-④-|
⑩④②⑮ |⑤⑥⑦⑧⑨⑩|
⑪⑫⑬⑭ |⑪⑫⑬⑭⑮⑯|
83
③□□□ |①---|
④①□□ |②---|
⑤②②□ |③④⑤⑥|
⑥⑦□□ |⑦-⑧⑨|

□⑨□⑧
□⑧□⑨
□□□□
□□□□
84
□□①□ |--①②|
□□②□ |③④⑤-|
□□③□ |⑥---|
□□④⑤ |⑦-⑧⑨|

⑥□□<
⑥□□<
□□□□
⑨⑧□□

7□□□
7□□□
□□□□
□□□□
85
□□□□ |①---|
□□□□ |②---|
①>□① |③---|
□□□□ |④---|

□③□□
□□□□
□③□□
>□□④

□□□□
□□□□
□□□2
□□□□
86
□□□□ |①-②-|
>□□② |----|
①□□② |③---④-|
□①□□ |--⑤---|

□④⑤□
③□□□
□④⑤□
③□□□

□□□□
□□□5
□□□□
□□□1
87
①□□① |①---|
③①①□ |②---|
④□□② |③④⑤⑥|
⑤⑥⑦② |⑦---|
88
□①①□ |①---|
□①□□ |----|
□①①□ |----|
□□□□ |----|

□□□□
>□①□
□□□□
□□□□
89
□□□□ |----|
□□□□ |----|
□□□□ |----|
□□□□ |----|
90
□□□□ |----|
□□□□ |----|
□□□□ |----|
□□□□ |----|
91
□□□□ |①---|
□①□□ |----|
□□□□ |----|
□□□□ |----|

□□□□
□□1□
□□□□
□□□□
最終更新:2024年01月23日 17:32