アットウィキロゴ
BPM:170
1
①□□< |①---|
□□□□ |----|
□②②□ |----|
□□□□ |②---|

2□□□
□□□□
□□□□
□□□□
2
□④①□ |①--②|
□②□① |--③-|
□□⑤□ |④--⑤|
□⑥□③ |--⑥-|
3
□③□② |①---|
□□②□ |②---|
□□□① |③---|
□□①□ |④-⑤-|

□□□□
□□□□
□□□⑤
□□□④
4
□□①□ |①--②|
□②④① |--③-|
□⑤③□ |④--⑤|
□□⑥□ |--⑥-|
5
□①□① |①---|
□□③□ |②---|
□□④□ |③-④-|
□②⑤② |⑤---|
6
□④□⑤ |①---|
□□③① |②-③-|
□②□① |④---|
□□□□ |⑤---|
7
□④①□ |①---|
□①□② |②---|
□□□□ |③---|
□□③③ |④---|
8
□□④□ |①---|
□③①② |②---|
□②①③ |③---|
□□④□ |④---|
9
□□□□ |①---|
□□①□ |----|
□□①□ |②---|
□□□□ |③---|

□□□□
□□□□
□③③□
□②□②
10
□①④□ |①--②|
①□②□ |--③-|
□⑤□□ |④--⑤|
③□⑥□ |--⑥-|
11
②□□□ |①---|
□②□□ |②---|
①□□□ |③---|
□①□□ |④---|

□□③□
□□□□
□□□□
④④□□
12
□①□□ |①--②|
①④②□ |--③-|
□③⑤□ |④--⑤|
□⑥□□ |--⑥-|
13
④□④□ |①---|
□③③□ |②---|
②②□□ |③---|
①□①□ |④---|
14
□①□□ |----|
①□①□ |①---|
□①□② |----|
□□□□ |--②-|
15
□□□□ |①-②-|
⑤⑥②① |③-④-|
④⑦③□ |⑤-⑥-|
□⑧⑧□ |⑦-⑧-|
16
①②③① |①---|
③□□□ |②---|
□□②□ |③---|
□④④□ |④---|
17
①□□□ |①---|
∧>①□ |②---|
□①<∨ |③---|
□□□① |④---|

□③□□
∨∧□③
③□∨∧
□□③□

24□□
□□24
42□□
□□42
18
□□②□ |①--②|
④□□< |--③-|
□□①③ |④⑤------|
□①□□ |⑥-⑦-|

□□□□
□④⑦□
□⑥□□
□□□□

□□□□
5□□□
□□□□
□□□□
19
□②□□ |①--②|
>□□④ |--③-|
□□④□ |④⑤------|
③①①□ |⑥-⑦-|

□□□□
□⑦□□
□□□⑥
□□□□

□□□□
□□□5
□□□□
□□□□
20
□□□□ |①--②|
□□②□ |--③-|
□①□□ |④⑤------|
□□①③ |⑥-⑦-|

④□⑦□
④□□<
□⑥□□
□□□□

□□□□
5□□□
□□□□
□□□□
21
③□□□ |①--②|
□②□□ |--③-|
□□①□ |④⑤------|
□①□□ |⑥-⑦-|

□⑦□□
>□□④
□□□④
□□⑥□

□□□□
□□□5
□□□□
□□□□
22
□□②□ |①--②|
□□□□ |--③-|
□①①③ |④⑤------|
□□□□ |⑥-⑦-|

□□□□
④□□<
④□□□
□□□□

□□□□
□□⑦□
□⑥□□
□□□□

□□□□
5□□□
□□□□
□□□□
23
①□③① |①---|
>□□③ |②---|
②□□② |③④----⑤-|
□□□□ |--⑥-|

□□□□
⑤□□□
□⑤□□
□⑥⑥□

□□□□
□□□4
□□□□
□□□□
24
①②③① |①---|
③□□< |②---|
□□②□ |③④------|
□⑤⑤□ |⑤---|

□□□□
4□□□
□□□□
□□□□
25
①□□□ |①---|
∧>①□ |②---|
□①<∨ |③---|
□□□① |④---|

□③□□
∨∧□③
③□∨∧
□□③□

24□□
□□24
42□□
□□42
26
□□②□ |①--②|
>□□④ |--③-|
□①①③ |④⑤------|
□□□□ |⑥-⑦-|

□□□□
□④⑦□
□⑥□□
□□□□

□□□□
□□□5
□□□□
□□□□
27
□②□□ |①--②|
④□□< |--③-|
□□④□ |④⑤------|
③①①□ |⑥-⑦-|

□□□□
□⑦□□
□□□⑥
□□□□

□□□□
5□□□
□□□□
□□□□
28
□□□□ |①--②|
□□②□ |--③-|
□①□□ |④⑤------|
□□①③ |⑥-⑦-|

④□⑦□
>□□④
□⑥□□
□□□□

□□□□
□□□5
□□□□
□□□□
29
③□□□ |①--②|
□②□□ |--③-|
□□①□ |④⑤------|
□①□□ |⑥-⑦-|

□⑦□□
④□□<
□□□④
□□⑥□

□□□□
5□□□
□□□□
□□□□
30
□□②□ |①--②|
>□□④ |--③-|
④①①③ |④⑤------|
□□□□ |⑥-⑦-|

□□□□
□□⑦□
□⑥□□
□□□□

□□□□
□□□5
□□□□
□□□□
31
①□③① |①---|
③□□< |②---|
②□□② |③④----⑤-|
□□□□ |--⑥-|

□□□□
□□□⑤
□⑤□□
□⑥⑥□

□□□□
4□□□
□□□□
□□□□
32
□□□□ |①---|
>□□② |----|
①□□② |②③------|
①□□④ |④---|

□□□□
□□□3
□□□□
□□□□
33
②③④⑥ |①---|
□□□□ |--②③|
□①①□ |④---|
□□⑤□ |⑤-⑥-|
34
□□□□ |①---|
□①①□ |②-③-|
□□□② |④⑤------|
□③□□ |⑥-⑦-|

□④④□
④□□<
□⑥□□
□□□⑦

□□□□
5□□□
□□□□
□□□□
35
□③□② |①-②-|
□①□□ |③-④-|
□□□④ |⑤⑥------|
□□□□ |⑦-⑧-|

⑦□□□
>□□⑤
⑧□□□
□⑤⑤□

□□□□
□□□6
□□□□
□□□□
36
□①①□ |①---|
□□②□ |②-③-|
□□□□ |④⑤------|
③□□□ |⑥-⑦-|

⑦□□□
④□□<
□④④□
□□⑥□

□□□□
5□□□
□□□□
□□□□
37
□□□□ |①---|
□①□□ |②---|
①□②□ |③④------|
□②□□ |⑤-⑥-|

□③③□
>□□③
□⑤□⑥
□□□□

□□□□
□□□4
□□□□
□□□□
38
□□□□ |①---|
□□①□ |②---|
□□□□ |③④----⑤-|
□②②□ |--⑥-|

□③③□
③□□<
□□□□
□□□□

□□□□
□⑤□□
□□□⑥
□□□□

□□□□
4□□□
□□□□
□□□□
39
□□□□ |①--②|
□□②□ |--③-|
③□□□ |④⑤------|
□①①□ |⑥-⑦-|

□④④□
>□□④
□□□□
□□□□

□□□□
□⑥□□
□□□⑦
⑥□⑦□

□□□□
□□□5
□□□□
□□□□
40
①□□□ |①---|
④□□< |②-③-|
②①④□ |④⑤----⑥-|
□④□③ |--⑦-|

□□□□
□⑥⑦□
□⑦□⑥
□□□□

□□□□
5□□□
□□□□
□□□□
41
□□①① |①---|
∨∨□□ |②-③-|
□□∧∧ |④⑤------|
②②□□ |⑥---|

□□□□
>□□④
⑥□□⑥
□□□□

□□22
□□□5
□□□□
33□□
42
□①□□ |①--②|
□□②□ |--③-|
□③□□ |④⑤------|
□□□□ |⑥---|

□□□□
④□□<
□□□□
□④④⑥

□□□□
5□□□
□□□□
□□□□
43
□□□① |①--②|
□②□□ |--③-|
□□□③ |④⑤------|
□□□□ |--⑥-|

□④④□
>□□④
□□⑥□
□□□□

□□□□
□□□5
□□□□
□□□□
44
①□□□ |①--②|
□□②□ |--③-|
③□□□ |④⑤------|
□□□□ |⑥-⑦-|

⑦④④□
④□□<
□□□□
⑥□□□

□□□□
5□□□
□□□□
□□□□
45
□□③□ |①--②|
□②□□ |--③-|
□□①□ |④⑤------|
□□□□ |⑥-⑦-|

⑦□□□
>□□④
□⑦□□
□④④⑥

□□□□
□□□5
□□□□
□□□□
46
□③③① |①---|
③□□< |②---|
□□①□ |③④------|
②②□□ |⑤---|

□□□□
□□⑤□
□□□⑤
□□□□

□□□□
4□□□
□□□□
□□□□
47
④<□□ |①---|
>□□④ |②-③-|
④<③□ |④⑤------|
①②①□ |⑥-⑦-|

□□□□
□⑦□□
□□□□
□□□□

6□□□
□□□5
6□□□
□□□□
48
□>□① |①---|
□□□□ |----|
□>□① |----|
□□□□ |②---|

□□□2
□□□□
□□□2
□□□□
49
□①①□ |①--②|
□②②④ |--③-|
⑤③③⑥ |④⑤⑥⑦|
⑦□□⑧ |⑧---|
50
□①④□ |①--②|
①⑤②④ |--③-|
⑥②⑤③ |④--⑤|
□⑥③□ |--⑥-|
51
②③⑤② |①---|
③□□□ |②---|
□④□③ |③---|
①□③① |④-⑤-|
52
①□□④ |①--②|
⑤①④② |--③-|
③⑤②⑥ |④--⑤|
□③⑥□ |--⑥-|
53
③①①③ |①---|
□④④□ |②---|
⑤□□⑤ |③-④-|
②□□② |⑤---|
54
④□□□ |①---|
②④⑤③ |②-③-|
□□□⑤ |④---|
①②③① |⑤---|
55
□①②□ |①---|
①□□② |②---|
③□□④ |③---|
□③④□ |④---|
56
②□□< |①---|
□①①□ |②---|
□①①□ |③---|
□□□□ |④---|

□□□③
□□□□
□□□∧
□□□□

□□□□
□□□□
>□□④
□□□□

3□□4
□□□□
□□□□
□□□□
57
∨□□□ |①--②|
□□□④ |③-④-|
①□②□ |⑤---|
□①□□ |⑥---|

⑤□□⑤
□□□□
□□□□
⑥□□⑥

□□□□
□□□□
3□□1
□□□□
58
□①④□ |①--②|
①⑤②④ |--③-|
⑥②⑤③ |④--⑤|
□⑥③□ |--⑥-|
59
②□⑤② |①---|
③□□□ |②---|
□④□③ |③---|
①□□① |④-⑤-|
60
①□□④ |①--②|
⑤①④② |--③-|
③⑤②⑥ |④--⑤|
□③⑥□ |--⑥-|
61
□④④□ |①---|
□③□③ |②---|
②□②□ |③---|
①□□① |④---|
62
①□□① |----|
□□□□ |①---|
□①①② |----|
□□□□ |--②-|
63
□□□□ |①-②-|
⑤⑥②① |③-④-|
④⑦③□ |⑤-⑥-|
□⑧⑧□ |⑦-⑧-|
64
①②③① |①---|
□□□□ |②---|
③□②□ |③---|
□④④□ |④---|
65
①□□□ |①---|
∧>①□ |②---|
□①<∨ |③---|
□□□① |④---|

□③□□
∨∧□③
③□∨∧
□□③□

24□□
□□24
42□□
□□42
66
□□②□ |①--②|
④□□< |--③-|
□□①③ |④⑤------|
□①□□ |⑥-⑦-|

□□□□
□④⑦□
□⑥□□
□□□□

□□□□
5□□□
□□□□
□□□□
67
□②□□ |①--②|
>□□④ |--③-|
□□④□ |④⑤------|
③①①□ |⑥-⑦-|

□□□□
□⑦□□
□□□⑥
□□□□

□□□□
□□□5
□□□□
□□□□
68
□□□□ |①--②|
□□②□ |--③-|
□①□□ |④⑤------|
□□①③ |⑥-⑦-|

④□⑦□
④□□<
□⑥□□
□□□□

□□□□
5□□□
□□□□
□□□□
69
③□□□ |①--②|
□②□□ |--③-|
□□①□ |④⑤------|
□①□□ |⑥-⑦-|

□⑦□□
>□□④
□□□④
□□⑥□

□□□□
□□□5
□□□□
□□□□
70
□□②□ |①--②|
④□□□ |--③-|
④①①③ |④---|
□□□□ |⑤-⑥-|

□□□□
□□⑥□
□⑤□□
□□□□
71
①□③① |①---|
④□□③ |②---|
②④□② |③--④|
□⑤⑤□ |--⑤-|
72
①②③① |①---|
□□□□ |②---|
③□②□ |③---|
□④④□ |④---|
73
①□□□ |①---|
∧>①□ |②---|
□①<∨ |③---|
□□□① |④---|

□③□□
∨∧□③
③□∨∧
□□③□

24□□
□□24
42□□
□□42
74
□□②□ |①--②|
□④⑥□ |--③-|
□⑤①③ |④---|
①①□□ |⑤-⑥-|
75
□□③③ |①--②|
②⑦□□ |③-④-|
□□⑤⑥ |⑤---|
④①①① |⑥-⑦-|
76
④□□□ |①--②|
□□②□ |--③-|
①①□□ |④---|
□□①③ |⑤-⑥-|

□□⑥□
□□□□
□⑤□□
□□□□
77
③⑥□□ |①--②|
□②□□ |--③-|
□□①④ |④---|
①①⑤□ |⑤-⑥-|
78
□□□□ |①--②|
□②①① |--③-|
④①□③ |④---|
□□□□ |⑤-⑥-|

□□□□
□□⑥□
□□□□
□⑤□□
79
①①①① |①---|
⑤③⑤③ |②---|
②②②② |③--④|
④□④□ |--⑤-|
80
①□③① |①---|
□□□□ |--②-|
□④④③ |③---|
□②□□ |④---|
81
①□□< |①---|
①□□< |②---|
□□□□ |----|
□□□□ |----|

2□□□
2□□□
□□□□
□□□□
82
□□□□ |----|
□□□□ |----|
□□□□ |----|
□□□□ |----|
最終更新:2024年01月23日 17:32