アットウィキロゴ
BPM:94
1
⑤①⑤① |①-②-|
②⑥②⑥ |③-④-|
⑦③⑦③ |--⑤-|
④□④□ |⑥-⑦-|
2
□②□□ |①---|
②□②□ |②---|
□②□□ |----|
□①□① |----|
3
①⑤①⑤ |①-②-|
⑥②⑥② |③-④-|
③⑦③⑦ |--⑤-|
□④□④ |⑥-⑦-|
4
□□②□ |①---|
□②□② |②---|
□□②□ |----|
①□①□ |----|
5
③②□③ |①---|
②□②□ |②---|
□②④□ |----|
□①□① |③-④-|
6
□□□□ |①-②-|
③①③① |③-④-|
□②④□ |----|
③①③① |----|
7
□⑤□□ |①---|
④□□□ |②-③-|
□③⑦□ |④-⑤-|
②①①⑥ |⑥-⑦-|
8
③□②③ |①-②-|
□□□① |--③-|
□□□□ |----|
□□□□ |----|
9
⑤①⑤□ |①-②-|
□⑥②⑥ |③-④-|
⑦③⑦□ |⑤-⑥-|
□⑧④⑧ |⑦-⑧-|
10
□□□□ |①---|
①□①□ |----|
□①□① |----|
□□□□ |----|
11
①⑤①⑤ |①-②-|
⑥②⑥② |③-④-|
③⑦③⑦ |--⑤-|
□④□④ |⑥-⑦-|
12
②□②□ |①---|
□□□□ |②---|
②□②□ |----|
①□①□ |----|
13
⑤①⑤① |①-②-|
②⑥②⑥ |③-④-|
⑦③⑦③ |--⑤-|
④□④□ |⑥-⑦-|
14
□②□② |①---|
□□□□ |②---|
□②□② |----|
□①□① |----|
15
②□②□ |①---|
□□③□ |②---|
②□②□ |----|
①□①□ |--③-|
16
③①③① |①-②-|
□②□□ |③-④-|
③①③① |----|
□④□□ |----|
17
□□⑤□ |①---|
□□□④ |②-③-|
□⑦③□ |④-⑤-|
⑥①①② |⑥-⑦-|
18
③②□③ |①-②-|
①□□□ |--③-|
□□□□ |----|
□□□□ |----|
19
□⑤①⑤ |①-②-|
⑥②⑥□ |③-④-|
□⑦③⑦ |⑤-⑥-|
⑧④⑧□ |⑦-⑧-|
20
□□□□ |①---|
□①□① |----|
①□①□ |----|
□□□□ |----|
21
③□□① |①-②-|
②②④④ |③-④-|
□□□□ |--⑤-|
□□□□ |⑥-⑦-|

□□□□
□⑦□□
□⑤⑥□
□□□□
22
□□□□ |①-②-|
②⑧①③ |③-④-|
④⑥⑦⑤ |⑤-⑥-|
□□□□ |⑦-⑧-|
23
①□②□ |--①-|
□□□□ |②-③-|
□□□③ |④-⑤⑥|
□□□□ |⑦-⑧-|

⑧□□□
⑤⑥⑦□
□□□□
□④□□
24
□④④□ |①-②-|
③□□□ |③-④-|
①□②□ |----|
□□□□ |----|
25
□⑤□⑤ |--①-|
④①④① |②-③-|
②□②□ |--④-|
□③□③ |⑤---|
26
①□□□ |--①-|
②□□③ |②-③-|
③□□② |④-⑤-|
□□□① |⑥-⑦-|

⑦⑥⑤④
□□□□
□□□□
④⑤⑥⑦
27
□□□③ |①---|
□①②□ |②-③-|
□②①□ |--④-|
③□□□ |--⑤-|

④□□□
□⑤⑤□
□□□□
□□□④
28
□①①□ |①---|
②□□② |②---|
□③③□ |③---|
④□□④ |④---|
29
①□□③ |①-②-|
④④②② |③-④-|
□□□□ |--⑤-|
□□□□ |⑥-⑦-|

□□□□
□□⑦□
□⑥⑤□
□□□□
30
□□□□ |①-②-|
③①⑧② |③-④-|
⑤⑦⑥④ |⑤-⑥-|
□□□□ |⑦-⑧-|
31
①□□□ |--①-|
□□□□ |②-③-|
□②□③ |④⑤⑥⑦|
□□□□ |⑧⑨⑩⑪|

□④⑤□
□⑥⑦□
□⑧⑨□
□⑩⑪□
32
□⑤⑤□ |①-②-|
③□□□ |③-④-|
□□④② |⑤---|
①□□□ |----|
33
⑤□⑤□ |--①-|
①④①④ |②-③-|
□②□② |--④-|
③□③□ |⑤---|
34
□□□① |--①-|
③□□② |②-③-|
②□□③ |④-⑤-|
①□□□ |⑥-⑦-|

④⑤⑥⑦
□□□□
□□□□
⑦⑥⑤④
35
□□□□ |①-②-|
□③②① |③---|
①②③□ |--④-|
□□□□ |⑤-⑥-|

□□□□
④⑤⑥□
□⑥⑤④
□□□□
36
□□□□ |----|
①□□□ |--①-|
□□□① |----|
□□□□ |----|
37
④□□□ |(88)①-②-|
□□□③ |③-④-|
②□□⑥ |⑤-⑥-|
⑤□□①
38
⑤⑥⑦④ |①②③-|
①②③□ |④-⑤⑥|
□□□□ |⑦---|
□□□□
39
□②□□ |(94)①--②|
□□□③ |--③-|
①④④□ |④---|
□□□□ |----|
40
□□□□ |①---|
□□□□ |----|
□□□□ |②-③-|
□①①□ |④-⑤-|

□⑤⑤□
⑤③③⑤
□②②□
□④④□
41
□□□① |----|
③□□□ |①---|
□□②□ |②---|
□□□□ |③---|
42
□□□□ |①-②-|
□□②① |③-④-|
□□③④ |⑤-⑥-|
⑧⑦⑥⑤ |⑦-⑧-|
43
②□□□ |①---|
□□□④ |②---|
①③□□ |③---|
□□□□ |④---|
44
□□□□ |①-②-|
①②□□ |③-④-|
④③□□ |⑤-⑥-|
⑤⑥⑦⑧ |⑦-⑧-|
45
□□□② |①---|
④□□□ |②---|
□□③① |③---|
□□□□ |④---|
46
□□□□ |①-②-|
□□②① |③-④-|
□□③④ |⑤-⑥-|
⑧⑦⑥⑤ |⑦-⑧-|
47
②□□□ |①---|
□□□④ |②---|
①③□□ |③---|
□□□□ |④---|
48
□□□□ |①-②-|
①②□□ |③-④-|
④③□□ |⑤-⑥-|
⑤⑥⑦⑧ |⑦-⑧-|
49
□□□□ |①---|
□□□□ |----|
□□□① |----|
□□□□ |----|
最終更新:2024年01月23日 17:33