アットウィキロゴ
BPM:170
1
□□③□ |①-②-|
②□□□ |③-④-|
□④④① |--⑤-|
□□①□ |⑥-⑦-|

□□□□
□⑦□□
⑦□□⑥
□⑤□□
2
□□□① |--①-|
②□①□ |--②-|
□②□□ |----|
□□③③ |③---|
3
□③□□ |①-②-|
□□□② |③-④-|
①④④□ |--⑤-|
□①□□ |⑥-⑦-|

□□⑦□
□□□⑦
⑥□□□
□□⑤□
4
□③□□ |--①-|
③①④□ |②-③-|
□□□□ |--④-|
□⑤□② |⑤---|
5
□□□② |①---|
②□□□ |--②-|
□②□③ |----|
①③□① |--③-|
6
□④⑥④ |①-②-|
⑥①□□ |③-④-|
⑤⑥③□ |⑤---|
□□□② |⑥---|
7
②④□□ |①---|
□□□② |--②-|
④□②□ |----|
□①①③ |③-④-|
8
□□①□ |①---|
□□□□ |②---|
□②②① |③---|
□□□□ |④---|

③□□□
□③□□
□□□④
□□④□
9
②□□□ |①---|
□□□② |--②-|
③□②□ |----|
①□③① |--③-|
10
④⑥④□ |①-②-|
□□①⑥ |③-④-|
□③⑥⑤ |⑤---|
②□□□ |⑥---|
11
□□□② |①---|
②□□□ |--②-|
□②□□ |----|
□①①□ |③-④-|

④□④□
□□□□
□□□□
□③□③
12
□④□□ |--①-|
□⑤②⑤ |②-③-|
③□□□ |④---|
□⑥①⑥ |⑤-⑥-|
13
□□③□ |①-②-|
②□□□ |③-④-|
□④④① |--⑤-|
□□①□ |⑥-⑦-|

□□□□
□⑦□□
⑦□□⑥
□⑤□□
14
□□□① |--①-|
②□①□ |--②-|
□②□□ |----|
□□③③ |③---|
15
□③□□ |①-②-|
□□□② |③-④-|
①④④□ |--⑤-|
□①□□ |⑥-⑦-|

□□⑦□
□□□⑦
⑥□□□
□□⑤□
16
□③□□ |--①-|
③①④□ |②-③-|
□□□□ |--④-|
□⑤□② |⑤---|
17
□□□② |①---|
②□□□ |--②-|
□②□③ |----|
①③□① |--③-|
18
□④⑥④ |①-②-|
⑥①□□ |③-④-|
⑤⑥③□ |⑤---|
□□□② |⑥---|
19
②④□□ |①---|
□□□② |--②-|
④□②□ |----|
□①①③ |③-④-|
20
□□①□ |①---|
□□□□ |②---|
□②②① |③---|
□□□□ |④---|

③□□□
□③□□
□□□④
□□④□
21
②□□□ |①---|
□□□② |--②-|
③□②□ |----|
①□③① |--③-|
22
④⑥④□ |①-②-|
□□①⑥ |③-④-|
□③⑥⑤ |⑤---|
②□□□ |⑥---|
23
□□□② |①---|
②□□□ |--②-|
□②□□ |----|
□①①□ |③-④-|

④□④□
□□□□
□□□□
□③□③
24
□□□□ |--①-|
③③③③ |②---|
□②④② |③---|
①□①□ |--④-|
25
□①□① |①---|
□□□③ |--②-|
□④□□ |③---|
□□②③ |--④-|
26
①□①□ |①---|
③□□□ |--②-|
□□④□ |③---|
③②□□ |--④-|
27
③①③① |①---|
□□□□ |--②-|
□②□□ |③---|
□④④□ |--④-|
28
③③③③ |①---|
□①①□ |--②-|
①②②① |③---|
□□④④ |--④-|
29
⑤□□② |①---|
④①④① |②-③-|
□□⑥⑥ |④---|
③③□□ |⑤-⑥-|
30
□①□① |①---|
③③□② |②-③-|
□⑤□⑤ |④---|
④□④□ |⑤---|
31
①⑦⑥② |①-②-|
□③④□ |③-④-|
①□⑧□ |⑤-⑥-|
□⑤□④ |⑦-⑧-|
32
①□□② |①②③④|
③□□④ |⑤⑥⑦⑧|
⑤□□⑥ |⑨⑩⑪⑫|
⑦□□⑧ |⑬-⑭-|

□⑬□⑭
□□⑫□
□⑪□□
□⑨⑩□
33
□④①□ |①---|
④①④① |②-③-|
□④①③ |④---|
②□□⑤ |⑤---|
34
①□□① |①---|
□□□□ |----|
□□□□ |----|
□②□□ |②---|
35
⑦⑧①□ |①---|
⑥②□① |②-③-|
⑤①□□ |④⑤⑥⑦|
④⑨③⑨ |⑧-⑨-|
36
⑤③⑤□ |--①-|
③①□① |②---|
□②②④ |③-④-|
□□④□ |--⑤-|
37
□□□□ |----|
□①①④ |--①-|
③⑤□□ |②-③-|
⑤②②□ |④-⑤-|
38
④②①④ |①---|
②□□□ |②---|
□□□① |③---|
□③③□ |④---|
39
□③⑥⑥ |①---|
□②②⑤ |②---|
⑦⑦□④ |③-④⑤|
①□③① |⑥-⑦-|
40
④④□□ |--①-|
□①①□ |--②-|
□□③□ |--③-|
②□□② |④---|
41
□□□① |①---|
③□①□ |②-③-|
□③□① |----|
③□②□ |④---|

□□□□
□□□□
□□□④
□□□④
42
③①③① |①---|
②③①□ |②-③-|
②□□□ |----|
□□④□ |④---|
43
□①⑧⑦ |①---|
①□②⑥ |②-③-|
□□①⑤ |④⑤⑥⑦|
⑨③⑨④ |⑧-⑨-|
44
□⑤③⑤ |--①-|
①□①③ |②---|
④②②□ |③-④-|
□④□□ |--⑤-|
45
□□□□ |----|
④①①□ |--①-|
□□⑤③ |②-③-|
□②②⑤ |④-⑤-|
46
④①②④ |①---|
□□□② |②---|
①□□□ |③---|
□③③□ |④---|
47
⑥⑥③□ |①---|
⑤②②□ |②---|
④□⑦⑦ |③-④⑤|
①③□① |⑥-⑦-|
48
□□④④ |--①-|
□①①□ |--②-|
□③□□ |--③-|
②□□② |④---|
49
②①□□ |①---|
□□②① |--②-|
①②□□ |----|
□□①② |③---|

□③□□
□③□□
□□③□
□□③□
50
□□③① |①---|
①□②③ |②-③-|
③②□① |----|
①③□□ |④-⑤-|

□□□④
□⑤□□
□□□□
□□□□
51
□□③□ |①-②-|
②□□□ |③-④-|
□④④① |--⑤-|
□□①□ |⑥-⑦-|

□□□□
□⑦□□
⑦□□⑥
□⑤□□
52
□□□① |--①-|
②□①□ |--②-|
□②□□ |----|
□□③③ |③---|
53
□③□□ |①-②-|
□□□② |③-④-|
①④④□ |--⑤-|
□①□□ |⑥-⑦-|

□□⑦□
□□□⑦
⑥□□□
□□⑤□
54
□③□□ |--①-|
③①④□ |②-③-|
□□□□ |--④-|
□⑤□② |⑤---|
55
□□③□ |①-②-|
②□□□ |③-④-|
□④④① |--⑤-|
□□①□ |⑥-⑦-|

□□□□
□⑦□□
⑦□□⑥
□⑤□□
56
□□□① |--①-|
②□①③ |--②-|
□②□□ |----|
□□□③ |③---|
57
①⑤□⑤ |①-②-|
□①□□ |③-④-|
④□④② |--⑤-|
□③□□ |----|
58
□□□□ |①---|
①①①① |----|
□□□□ |----|
□②□□ |②---|
59
⑦⑧①□ |①---|
⑥②□① |②-③-|
⑤①□□ |④⑤⑥⑦|
④⑨③⑨ |⑧-⑨-|
60
⑤③⑤□ |--①-|
③①□① |②---|
□②②④ |③-④-|
□□④□ |--⑤-|
61
□□□□ |----|
□①①④ |--①-|
③⑤□□ |②-③-|
⑤②②□ |④-⑤-|
62
④②①④ |①---|
②□□□ |②---|
□□□① |③---|
□③③□ |④---|
63
□③⑥⑥ |①---|
□②②⑤ |②---|
⑦⑦□④ |③-④⑤|
①□③① |⑥-⑦-|
64
④④□□ |--①-|
□①①□ |--②-|
□□③□ |--③-|
②□□② |④---|
65
□□□① |①---|
③□①□ |②-③-|
□③□① |----|
③□②□ |④---|

□□□□
□□□□
□□□④
□□□④
66
③①③① |①---|
②③①□ |②-③-|
②□□□ |----|
□□④□ |④---|
67
□①⑧⑦ |①---|
①□②⑥ |②-③-|
□□①⑤ |④⑤⑥⑦|
⑨③⑨④ |⑧-⑨-|
68
□⑤③⑤ |--①-|
①□①③ |②---|
④②②□ |③-④-|
□④□□ |--⑤-|
69
□□□□ |----|
④①①□ |--①-|
□□⑤③ |②-③-|
□②②⑤ |④-⑤-|
70
④①②④ |①---|
□□□② |②---|
①□□□ |③---|
□③③□ |④---|
71
⑥⑥③□ |①---|
⑤②②□ |②---|
④□⑦⑦ |③-④⑤|
①③□① |⑥-⑦-|
72
□□④④ |--①-|
□①①□ |--②-|
□③□□ |--③-|
②□□② |④---|
73
②①□□ |①---|
□③②① |--②-|
①②③□ |----|
□□①② |③---|
74
□②①□ |①---|
①□③② |--②-|
②③□① |----|
□①②□ |③---|
75
□③②① |①---|
①□③② |--②-|
②③□① |----|
①②③□ |③---|
76
③□③① |①---|
①②④□ |②-③-|
⑤□②① |----|
①③□③ |④-⑤-|
77
□□③□ |①-②-|
②□□□ |③-④-|
□④④① |--⑤-|
□□①□ |⑥-⑦-|

□□□□
□⑦□□
⑦□□⑥
□⑤□□
78
□□□① |--①-|
②□①□ |--②-|
□②□□ |----|
□□③③ |③---|
79
□①①□ |①---|
□①①□ |----|
□□□□ |----|
□□□□ |----|
最終更新:2024年01月23日 17:34