アットウィキロゴ
BPM:113

1
□□□□ |①--②|
□③□② |--③-|
□□□□ |--④-|
①□①□ |-⑤--|

□□□□
□□⑤□
□□□□
□□④□
2
□⑥⑤⑤ |①--②|
②②③□ |--③-|
④□④□ |④--⑤|
□①□① |--⑥-|
3
③⑦□⑤ |①--②|
②□⑧④ |③-④⑤|
□⑨⑥□ |--⑥-|
□①□① |-⑦⑧⑨|
4
□□□□ |①②③④|
□④□□ |-⑤⑥⑦|
□□③□ |⑧⑨-⑩|
①②①□ |-⑪-⑫|

⑥□⑤□
⑦□⑫⑫
⑪⑨□⑩
□□⑧□
5
□□①① |-①--|
②□□□ |②-③-|
□□□□ |④-⑤⑥|
□□□③ |-⑦-⑧|

□□□⑦
□□□□
⑧⑧⑤⑥
④④□□
6
□□□□ |-①--|
①①□② |②-③-|
□□□□ |④-⑤⑥|
③□□□ |-⑦-⑧|

⑦□□⑧
□□□□
⑥⑤□□
□□④④
7
②③①□ |--①-|
③②□① |-②-③|
□□□□ |-④⑤⑥|
□□□□ |⑦⑧⑨⑩|

□□□□
□□□⑩
⑦⑥⑤□
□⑧⑨④
8
□□②□ |-①-②|
①③□□ |③④⑤-|
□□④□ |⑥-⑦-|
□⑤□□ |⑧⑨⑩-|

□□□□
□□⑥□
□□□⑥
⑦⑩⑨⑧
9
④⑤□⑤ |①---|
③□①① |--②③|
②⑥□⑥ |④--⑤|
□□□□ |--⑥-|
10
④⑤□□ |①--②|
□□②① |--③-|
□③④⑤ |④--⑤|
②①③□ |----|
11
⑤□⑤④ |①---|
①①□③ |--②③|
⑥□⑥② |④--⑤|
□□□□ |--⑥-|
12
□□⑤④ |①--②|
①②□□ |--③-|
⑤④③□ |④--⑤|
□③①② |----|
13
④⑤□⑤ |①---|
③□①① |--②③|
②⑥□⑥ |④--⑤|
□□□□ |--⑥-|
14
④⑤□□ |①--②|
□□②① |--③-|
□③④⑤ |④--⑤|
②①③□ |----|
15
⑤□⑤④ |①---|
①①□③ |--②③|
⑥□⑥② |④--⑤|
□□□□ |--⑥-|
16
□□□□ |①--②|
①②□□ |--③-|
□□③□ |④--⑤|
□③①② |--⑥-|

□□⑤④
□⑥⑥□
⑤④□□
□□□□
17
①□□① |①---|
③□□② |②--③|
□①①□ |-④⑤-|
□□□□ |⑥---|

□□□□
□□□□
⑥□⑤④
□□□□
18
□□①□ |①--②|
①□③□ |--③-|
□②□□ |④--⑤|
□□□□ |--⑥-|

□□□□
□④□□
□⑥□④
□□⑤□
19
□□□□ |①---|
③□□② |②--③|
□□①□ |-④⑤-|
①□□□ |⑥---|

□□□□
□□□□
⑥□⑤④
□□□□
20
□□□④ |①--②|
□□③④ |-③-④|
□②③□ |---⑤|
①②□① |--⑥-|

□□□□
□⑤⑥□
□□□□
⑤□□⑥
21
①①①① |①---|
③□□② |②--③|
⑥□⑤④ |-④⑤-|
□□□□ |⑥---|
22
□□①□ |①--②|
①□③□ |--③-|
□②□□ |④--⑤|
□□□□ |--⑥-|

□□□□
□④□□
□⑥□④
□□⑤□
23
□□□□ |①---|
③□□② |②--③|
□□①□ |-④⑤-|
①□□□ |⑥---|

□□□□
□□□□
⑥□⑤④
□□□□
24
④□□□ |①--②|
④③□□ |-③-④|
□③②□ |---⑤|
①□②① |--⑥-|

□□□□
□⑥⑤□
□□□□
⑥□□⑤
25
□①<□ |①---|
∨④□① |②---|
①②③∧ |③---|
□>①□ |④---|

□4□□
□□□4
4□□□
□□4□
26
□□□① |①---|
□□①□ |②---|
□□□① |③---|
□②②□ |④---|

④□□④
□□④□
□③□□
③□□③
27
□①①□ |①---|
□□□□ |②-③④|
②□□② |⑤--⑥|
□①①□ |--⑦-|

□□□□
⑦□⑤⑥
□④□□
③⑥⑦□
28
①①①① |①---|
□□□□ |②---|
②□□② |③④-⑤|
□□□□ |-⑥--|

⑤□□⑥
□⑤⑥□
□③④□
□③④□
29
□>①□ |①---|
①□④∨ |②---|
∧③②① |③---|
□①<□ |④---|

□□4□
4□□□
□□□4
□4□□
30
①①□□ |①---|
□□□□ |②-③-|
□□□③ |④--⑤|
□□□② |--⑥-|

⑤□□④
□④⑤⑥
□□⑥□
□□□□
31
□□□□ |①-②③|
①④③□ |④⑤--|
⑤①□② |⑥⑦⑧⑨|
□□□□ |----|

□⑦⑧□
⑥□□⑨
□□□□
□□□□
32
④④④④ |①-②-|
③③③③ |-③-④|
②②①① |----|
①①②② |⑤⑥⑦-|

□□□□
□□□□
□□□□
⑦⑥⑤□ 
33
□□②□ |①--②|
③①①□ |-③-④|
□①①④ |--⑤-|
□□□□ |⑥-⑦-|

□□□□
□□⑦⑦
□□□□
⑤□⑥⑥
34
①□①□ |①--②|
□□□□ |----|
②□②□ |③④-⑤|
□□□□ |-⑥-⑦|

□□⑦□
⑥□□□
□□□⑤
④③□□
35
□□□□ |---①|
□□□① |--②-|
□□②□ |③--④|
□①□□ |--⑤-|

□□□④
□③□□
□□⑤□
④□□③
36
①□②□ |①--②|
④□③② |-③-④|
□②□□ |-⑤⑥⑦|
②□□① |⑧⑨⑩-|

□⑩□⑩
□□⑨□
⑤⑧□⑧
□⑥⑦□
37
□□②□ |①--②|
③①⑦⑦ |-③-④|
□□①④ |--⑤-|
⑤□⑥⑥ |⑥-⑦-|
38
①□①□ |①--②|
□□□□ |----|
②□②□ |③④-⑤|
□□□□ |-⑥-⑦|

□□⑦□
⑥□□□
□□□⑤
④③□□
39
□□□□ |---①|
□□□① |--②-|
□□②□ |③--④|
□①□□ |--⑤-|

□□□④
□③□□
□□⑤□
④□□③
40
①④④□ |①---|
②②③③ |②③-④|
□④④□ |-⑤⑥⑦|
□□□① |⑧⑨⑩⑪|

□□□□
□⑧⑨□
⑦□⑪⑩
□⑥⑤□
41
⑦⑤①① |①--②|
④⑥∧∧ |-③-④|
□③□□ |-⑤⑥-|
②□□□ |⑦---|

□□77
□□□□
□□□□
□□□□
42
⑦⑤□□ |①--②|
④⑥①① |-③-④|
□③∧∧ |-⑤⑥-|
②□□□ |⑦---|

□□□□
□□77
□□□□
□□□□
43
⑦⑤①① |①--②|
④⑥∧∧ |-③-④|
□③□□ |-⑤⑥-|
②□□□ |⑦---|

□□77
□□□□
□□□□
□□□□
44
□□□□ |①--②|
④□①① |-③-④|
□③∧∧ |⑤⑥⑦⑧|
②□□□ |⑨⑩⑪⑫|

□□□□
□□44
□□□□
□□□□

□□⑥□
□⑤□⑫
⑦⑪⑩□
□⑨⑧□
45
①①⑤⑦ |①--②|
∧∧⑥④ |-③-④|
□□③□ |-⑤⑥-|
□□□② |⑦---|

77□□
□□□□
□□□□
□□□□
46
□□⑤⑦ |①--②|
①①⑥④ |-③-④|
∧∧③□ |-⑤⑥-|
□□□② |⑦---|

□□□□
77□□
□□□□
□□□□
47
①①⑤⑦ |①--②|
∧∧⑥④ |-③-④|
□□③□ |-⑤⑥-|
□□□② |⑦---|

77□□
□□□□
□□□□
□□□□
48
□□□□ |①--②|
①①□□ |-③-④|
∧∧③□ |⑤⑥⑦⑧|
□□□② |⑨⑩⑪-|

⑥□□⑤
□□□□
⑧□□⑦
⑪⑩⑨□

□□□□
44□□
□□□□
□□□□
49
□□②□ |①--②|
③①①□ |-③-④|
□①①④ |--⑤-|
□□□□ |⑥-⑦-|

□□□□
□□⑦⑦
□□□□
⑤□⑥⑥
50
①□①□ |①--②|
□□□□ |----|
②□②□ |③④-⑤|
□□□□ |-⑥-⑦|

□□⑦□
⑥□□□
□□□⑤
④③□□
51
□□□□ |---①|
□□□① |--②-|
□□②□ |③--④|
□①□□ |--⑤-|

□□□④
□③□□
□□⑤□
④□□③
52
①□②□ |①--②|
④□③② |-③-④|
□②□□ |-⑤⑥⑦|
②□□① |⑧⑨⑩-|

□⑩□⑩
□□⑨□
⑤⑧□⑧
□⑥⑦□
53
□□②□ |①--②|
③①⑦⑦ |-③-④|
□□①④ |--⑤-|
⑤□⑥⑥ |⑥-⑦-|
54
①□①□ |①--②|
□□□□ |----|
②□②□ |③④-⑤|
□□□□ |-⑥-⑦|

□□⑦□
⑥□□□
□□□⑤
④③□□
55
①②□□ |--①-|
□□□③ |②-③-|
①②□□ |④--⑤|
□□□③ |--⑥-|

□□□□
□⑤④□
⑥□⑤⑥
□□④□
56
①□□② |①--②|
③③③③ |---③|
□①②□ |----|
□□□□ |----|
最終更新:2024年01月23日 17:34