アットウィキロゴ
BPM:136
1
□□□□ |----|
□□□□ |----|
①②□□ |----|
□□□□ |--①②|
2
⑧⑧□□ |①②③-|
□⑤①② |④-⑤⑥|
□□⑥□ |⑦-⑧-|
③⑦□④ |--⑨⑩|

□□□□
□□⑩⑨
□□□□
□□□□
3
⑨⑨□⑤ |-①②-|
□④□⑦ |③-④⑤|
①⑥⑪⑩ |⑥⑦⑧-|
③⑧□② |⑨-⑩⑪|
4
□□⑧⑧ |①②③-|
②①⑤□ |④-⑤⑥|
□⑥□□ |⑦-⑧-|
④□⑦③ |--⑨⑩|

□□□□
⑨⑩□□
□□□□
□□□□
5
⑤⑨⑨□ |-①②-|
⑦□④□ |③-④⑤|
□□⑥① |⑥⑦⑧-|
②□⑧③ |⑨-⑩⑪|

□□□□
□□□□
□⑪□□
⑩□□□
6
④□□② |①②③-|
⑧⑧①⑥ |④-⑤⑥|
③□□⑤ |⑦-⑧-|
□⑦□□ |--⑨⑩|

□□□□
□□⑩□
□□⑨□
□□□□
7
□⑧□□ |-①②-|
□□⑦□ |③-④⑤|
①⑥□□ |⑥⑦⑧-|
②④⑤③ |⑨-⑩⑪|

□□□□
⑨□□□
⑨□⑪□
□□□⑩
8
②□□④ |①②③-|
⑥①⑧⑧ |④-⑤⑥|
⑤□□③ |⑦-⑧-|
□□⑦□ |--⑨⑩|

□□□□
□⑩□□
□⑨□□
□□□□
9
□□⑧□ |-①②-|
□⑦□□ |③-④⑤|
□□⑥① |⑥⑦⑧-|
③⑤④② |⑨---|

⑨□□⑨
□□□□
⑨□□⑨
□□□□
10
□④⑤□ |①---|
③□□③ |②-③-|
□□②□ |----|
①□□① |④-⑤-|
11
□□⑥□ |①-②-|
□□④④ |③-④-|
□⑤③□ |----|
①①□② |⑤-⑥-|
12
③□□③ |①---|
①④②① |②-③-|
□□⑤□ |--④-|
□⑥□□ |⑤-⑥-|
13
□□①① |--①-|
②②□□ |②-③-|
□□③③ |----|
□□□□ |----|
14
□⑤④□ |①---|
③□□③ |②-③-|
□②□□ |----|
①□□① |④-⑤-|
15
□⑥□□ |①-②-|
④④□□ |③-④-|
□③⑤□ |----|
②□①① |⑤-⑥-|
16
③□□③ |①---|
①②④① |②-③-|
□⑤□□ |--④-|
□□⑥□ |⑤-⑥-|
17
①①□□ |--①-|
□□②② |②-③-|
③③□□ |----|
□□□□ |----|
18
□④⑤□ |①---|
③□③③ |②-③-|
□②□□ |----|
①□①① |④-⑤-|
19
④④⑥④ |①-②-|
□□□□ |③-④-|
①③①① |----|
②⑤□□ |⑤-⑥-|
20
□□□□ |①---|
③□③③ |②-③-|
①①□① |--④-|
□□②□ |--⑤-|

□□□□
□□□□
□④□□
⑤□□□
21
②②□□ |①-②-|
④③③⑤ |--③-|
□③③□ |--④-|
□□①① |⑤---|
22
□⑥⑤④ |①---|
③③□③ |②-③-|
□□②□ |--④-|
①①□① |⑤-⑥-|
23
④⑥④④ |①-②-|
□□□□ |③-④-|
①①③① |----|
□□⑤② |⑤-⑥-|
24
□□□□ |①---|
③③④③ |②-③-|
①⑤①① |--④-|
□②□⑥ |⑤-⑥-|
25
③□②□ |①-②-|
⑥④④⑤ |③-④-|
□④④□ |--⑤-|
①①□□ |⑥---|
26
□□□① |①---|
④①②④ |②---|
②③□① |③---|
④②③③ |④---|
27
①④④① |①---|
④②□③ |②---|
②□①□ |③---|
□③③② |④---|
28
④□⑤□ |①---|
⑥①①③ |--②③|
②①①⑤ |④--⑤|
□⑥□□ |--⑥-|
29
□□□□ |①---|
□□□□ |--②-|
□①①□ |③--④|
□□②② |--⑤-|

③④③□
⑤□⑤④
③□④□
□⑤□□
30
□□①□ |----|
□②□□ |----|
□□□□ |①--②|
□□③③ |--③-|
31
□□□□ |----|
□③③□ |----|
□②□□ |①--②|
①□①□ |--③-|
32
□①①□ |----|
①□□① |----|
②□□② |①---|
□②②□ |--②-|
33
□□□□ |----|
□□□□ |----|
□□□□ |----|
□□□□ |----|
34
□□□□ |①---|
②□□② |②---|
□①①□ |③--④|
□□□□ |--⑤-|

□③④□
□□□□
③⑤⑤④
④⑤⑤③
35
④⑤③④ |--①-|
□②②⑥ |②-③-|
①⑥□⑤ |④-⑤-|
③⑦⑦① |⑥-⑦-|
36
⑤③⑤③ |①---|
①⑤③□ |②-③-|
②□①□ |--④-|
④□④② |--⑤-|
37
□□⑦① |--①-|
④⑥②① |②-③-|
④③②⑤ |④-⑤-|
□③□□ |⑥-⑦-|
38
□□□□ |①---|
□□□□ |②---|
□□②② |③--④|
①①□□ |--⑤-|

③□□④
④⑤⑤③
□⑤⑤□
□④③□
39
④②③④ |--①-|
⑤⑥□② |②-③-|
①□⑤⑥ |④-⑤-|
⑦③①⑦ |⑥-⑦-|
40
③□③□ |①---|
□③①□ |②-③-|
□①□□ |--④-|
□②②□ |--⑤-|

□⑤□⑤
□□⑤□
□□□□
④□□④
41
①□□□ |--①-|
□②□□ |②-③-|
①□③□ |④---|
□②③④ |----|
42
□□□□ |①---|
②□□② |②---|
□①①□ |③--④|
□□□□ |--⑤-|

□③④□
□□□□
③⑤⑤④
④⑤⑤③
43
④⑤③④ |--①-|
□②②⑥ |②-③-|
①⑥□⑤ |④-⑤-|
③⑦⑦① |⑥-⑦-|
44
⑤③⑤③ |①---|
①⑤③□ |②-③-|
②□①□ |--④-|
④□④② |--⑤-|
45
□□⑦① |--①-|
④⑥②① |②-③-|
④③②⑤ |④-⑤-|
□③□□ |⑥-⑦-|
46
□□□□ |①---|
□□□□ |②---|
□□②② |③--④|
①①□□ |--⑤-|

③□□④
④⑤⑤③
□⑤⑤□
□④③□
47
□③③□ |--①-|
③□□① |②-③-|
①□□② |④-⑤-|
②□①② |⑥-⑦-|

④□□④
□⑤④⑥
⑥⑦⑤□
⑦⑤⑥⑦
48
②□①② |①---|
①②②□ |--②-|
□□□① |----|
□□□□ |③-④-|

□③④□
③□□④
③□□④
□□□□
49
□□③□ |--①-|
③①②□ |--②-|
④⑤②③ |--③-|
②①□① |--④⑤|
50
⑧⑧□□ |①②③-|
□⑤①② |④-⑤⑥|
□□⑥□ |⑦-⑧-|
③⑦□④ |--⑨⑩|

□□□□
□□⑩⑨
□□□□
□□□□
51
⑨⑨□⑤ |-①②-|
□④□⑦ |③-④⑤|
①⑥⑪⑩ |⑥⑦⑧-|
③⑧□② |⑨-⑩⑪|
52
□□⑧⑧ |①②③-|
②①⑤□ |④-⑤⑥|
□⑥□□ |⑦-⑧-|
④□⑦③ |--⑨⑩|

□□□□
⑨⑩□□
□□□□
□□□□
53
⑤⑨⑨□ |-①②-|
⑦□④□ |③-④⑤|
□□⑥① |⑥⑦⑧-|
②□⑧③ |⑨-⑩⑪|

□□□□
□□□□
□⑪□□
⑩□□□
54
④□□② |①②③-|
⑧⑧①⑥ |④-⑤⑥|
③□□⑤ |⑦-⑧-|
□⑦□□ |--⑨⑩|

□□□□
□□⑩□
□□⑨□
□□□□
55
□⑧□□ |-①②-|
□□⑦□ |③-④⑤|
①⑥□□ |⑥⑦⑧-|
②④⑤③ |⑨-⑩⑪|

□□□□
⑨□□□
⑨□⑪□
□□□⑩
56
②□□④ |①②③-|
⑥①⑧⑧ |④-⑤⑥|
⑤□□③ |⑦-⑧-|
□□⑦□ |--⑨⑩|

□□□□
□⑩□□
□⑨□□
□□□□
57
□□⑧□ |-①②-|
□⑦□□ |③-④⑤|
□□⑥① |⑥⑦⑧-|
③⑤④② |⑨⑩⑪⑫|

⑨□□□
□□□⑩
⑪□□□
□□□⑫
最終更新:2024年01月23日 17:35