アットウィキロゴ
BPM:80
1
□□③□ |①-②-|
②□①① |③-④-|
□④□□ |----|
□□□□ |----|
2
□③□□ |①-②-|
①①□② |③-④-|
□□④□ |----|
□□□□ |----|
3
□□□□ |①---|
□□□□ |②-③④|
①①①① |--⑤-|
□□□□ |⑥-⑦-|

⑦□□□
□□④⑥
⑤□□③
②□□□
4
□②①① |①-②③|
□□③□ |----|
□□□□ |--④-|
□□□□ |⑤-⑥-|

□⑤□□
□□□□
□④⑥□
□□□□
5
□⑧①① |①---|
②□③□ |-②③④|
□④⑦⑤ |⑤-⑥-|
⑥□□□ |⑦-⑧-|
6
□□□① |①---|
②□□① |--②③|
□③④□ |④---|
□□④□ |----|
7
□□□□ |①---|
□□□□ |②-③④|
①①①① |--⑤-|
□□□□ |⑥-⑦-|

□□□⑦
⑥④□□
③□□⑤
□□□②
8
①①②□ |①-②③|
□③□□ |----|
□□□□ |--④-|
□□□□ |⑤-⑥-|

□□④□
□□□□
□⑥⑤⑤
□□□□
9
①①□□ |①-②③|
□③②□ |--④⑤|
□⑤④□ |⑥-⑦-|
□□□□ |⑧-⑨-|

□□□□
□□⑥⑥
□□□□
□⑦□⑧

□□□□
□⑨⑨□
□□□□
□□□□
10
②□③□ |①-②-|
④□□③ |③-④-|
①□□① |⑤-⑥-|
□①①□ |⑦-⑧-|

□□□□
□□⑤□
⑥□□⑤
□□□□

□□□□
□□□□
□⑧□⑧
□⑦□⑦
11
□□① |①-②-|
□□① |③-④-|
□④□□ |⑤-⑥-|
②③□□ |⑦-⑧-|

□⑥□□
⑤□⑦□
□⑧□□
□□□□

□□□5
□□□5
□□□□
□□□□
12
①①□② |①--②|
④□□② |③-④-|
□③□ |⑤-⑥-|
□③□ |⑦-⑧⑨|

⑥⑦□□
□⑤⑨□
□⑧□□
□□□□

□□□□
□□□□
□□7□
□□7□
13
□□① |①-②-|
④□□□ |③-④-|
□③□□ |⑤-⑥-|
②□□□ |⑦-⑧-|

□⑤□□
□⑦⑥⑧
⑧⑥⑦□
□□□□

□□□5
□□□□
□□□□
□□□□
14
②□□② |①---|
①②②□ |②---|
□③③① |③---|
③□□③ |④-⑤-|

□④⑤□
④□□⑤
□□□□
□□□□
15
□④④□ |①-②-|
⑤①②⑤ |③-④-|
□①②□ |⑤---|
□③③□ |⑥-⑦⑧|

⑦□□⑥
□⑧⑧□
□⑦⑥□
□□□□
16
③□□③ |--①-|
□④④□ |②-③-|
②□□② |④---|
□①①□ |--⑤⑥|

□□□□
□□⑥□
□□□⑤
□□□□
17
□①①□ |①---|
⑤⑤④④ |--②-|
②②③③ |③-④-|
□□□□ |⑤-⑥-|

□□□□
□□□□
□⑥⑥□
□□□□
18
∨□□∨ |①---|
□□□□ |②-③-|
①□□① |④---|
□□□□ |----|

□∨∨□
□④④□
□□□□
□③③□

□□□□
□□□□
2□□2
□□□□
19
□□□□ |①---|
①11① |--②-|
□□□□ |③--④|
□□□□ |--⑤-|

□□□□
⑤□□④
③④⑤②
□③②□
20
①><① |①---|
□□□□ |②-③④|
□□□□ |----|
□□□□ |----|

□④④□
④③③④
□□□□
∧□□∧

2□□2
□□□□
□□□□
□□□□
21
②④④③ |①---|
1□□1 |②-③④|
③□□② |--⑤-|
□□□□ |⑥-⑦-|

□□□□
□□□□
⑦⑤⑦⑤
⑥□⑥□
22
□∨□∨ |①---|
□①□① |②-③④|
□□□□ |⑤---|
□□□□ |⑥---|

□□□□
□2□2
□□□□
□□□□

④□<⑤
④□<□
□③③□
□□□⑥
23
1□□① |①---|
1□□□ |②-③④|
□□□□ |--⑤-|
□□□□ |⑥-⑦-|

□④④□
③□□②
□③②□
□□□□

□□□□
□⑥⑦□
□⑦⑥□
⑦⑤⑤⑥
24
①□□□ |①--②|
①□□□ |--③④|
□>□② |⑤--⑥|
□>□② |--⑦-|

⑤□□□
④□□□
③□□□
□□□□

□□⑥□
⑦□□□
□□□□
□□□□
25
□□□□ |①---|
□③②□ |②-③④|
□④④1 |--⑤-|
①②③1 |⑥-⑦-|

□□□⑤
⑤□□□
⑦□□⑥
⑥□□⑦
26
①□□□ |①--②|
□∨∨① |----|
□□□□ |③-④-|
□②②□ |⑤--⑥|

□□□□
□□□□
□□□□
□33□

⑤□□④
□④⑤□
④□□⑤
□⑥⑥□
27
□①①□ |①---|
①□□① |②-③-|
③□□□ |④-⑤-|
②③□② |⑥-⑦-|

□⑥⑤□
⑥□□⑤
⑦□□④
□⑦④□
28
①><① |①---|
□□□□ |②-③④|
□□□□ |----|
□□□□ |----|

2□□2
□□□□
□□□□
□□□□

□④④□
④③③④
□□□□
∧□□∧
29
③④④② |①---|
1□□1 |②-③④|
②□□③ |--⑤-|
□□□□ |⑥-⑦-|

□□□□
□□□□
⑤⑦⑤⑦
□⑥□⑥
30
□□③□ |①--②|
①□①□ |--③-|
□□□③ |④-⑤-|
②□②□ |⑥--⑦|

④⑤□⑥
□□□□
⑤④⑥□
□⑦⑦□
31
∨□□∨ |①-②-|
①④④① |③-④-|
□②③□ |----|
□□□□ |⑤-⑥⑦|

□□□□
4□□4
□□□□
□□□□

□□⑦□
□⑥□□
□□□□
⑤□□⑤
32
□③③□ |--①-|
①□□② |②-③-|
□□□□ |--④-|
□②①□ |⑤-⑥-|

□⑤□□
□□⑥④
⑤□□□
□□④⑥
33
①□□□ |①-②-|
□□□□ |③-④-|
③①□② |----|
□②③□ |⑤-⑥-|

④⑤⑤④
∧□□∧
⑥□□⑥
□□□□

5□□5
□□□□
□□□□
□□□□
34
□□□□ |①---|
□□□□ |②-③-|
□□□□ |④---|
①><① |⑤---|

□□□□
□□□□
□□□□
2□□2

□□□□
④><④
□③③□
□□□□

□□□□
5□□5
□□□□
□□□□
35
②③②③ |①---|
□□□□ |②---|
③②③② |③---|
①①①① |④-⑤-|

□□□□
④⑤④⑤
⑤④⑤④
□□□□
36
□⑤□④ |①-②-|
□□③□ |③-④-|
□□□② |⑤-⑥-|
①□<□ |⑦-⑧-|

□⑧□⑦
□□⑥□
□□□□
□①□<
37
□□□□ |①-②-|
□□①□ |③-④-|
□□□② |⑤---|
11□□ |--⑥-|

□⑥□□
⑥□④□
□③□□
□⑤⑤□
38
①□□□ |①---|
□①□□ |--②-|
□□□② |③-④-|
□□②□ |⑤-⑥-|

□⑥∨∨
⑤□□□
□④③□
③□□③
39
□□②□ |①---|
□①□② |②---|
②□□□ |③---|
□②□□ |④---|

□□□□
□□□□
□□1□
□□□1

□③□□
③□□④
□□□③
□□③④
40
①□□< |①-②-|
□□②④ |(70)③-④-|
①□□< |(62)⑤-⑥-|
□□①③ |(22)⑦------⑧---------------|

□□□⑧
□□⑥□
□□□⑦
□□⑤□

7□□□
□□□□
7□□□
□□□□
41
□□□□ |(80)①---|
①∨□ |----|
①□①□ |----|
∧①<□ |----|
42
□□□□ |①---|
□1□□ |----|
1□1□ |----|
□1□□ |----|
最終更新:2024年01月23日 17:35