アットウィキロゴ
BPM:146
1
□□□∨ |①---|
>①□① |----|
①□①< |----|
∧□□□ |----|
2
□□□□ |----|
□1□1 |----|
1□1□ |----|
□□□□ |①---|
3
□③②① |①--②|
④□□□ |--③-|
□□□□ |④---|
∧□□□ |⑤---|

□□□□
5□□□
□□□□
□□□□
4
□□□□ |①--②|
□□□∨ |--③-|
①②③□ |④---|
□□□④ |⑤---|

□□□□
□□□□
□□□□
□□□5
5
□□□□ |①---|
□①①□ |----|
□□□□ |----|
□∧∧□ |----|
6
□□□□ |----|
□11□ |----|
②□□③ |①---|
□□□□ |②-③-|
7
⑦□□⑦ |①-②③|
②③⑥⑤ |----|
□□□□ |④-⑤⑥|
④①①④ |--⑦-|
8
□∨∨□ |①---|
□□□□ |----|
□①①□ |----|
□□□□ |----|
9
□□□□ |----|
□□□□ |----|
□□□□ |----|
□□□□ |----|
10
□□□□ |①---|
□□□□ |----|
□11□ |----|
□□□□ |----|
11
□④□□ |①---|
□⑤⑥□ |②-③-|
③□④② |④-⑤⑥|
①□⑦① |⑦---|
12
□□□□ |①---|
④□⑥⑤ |②-③-|
□③④② |④-⑤⑥|
②□⑦① |⑦---|
13
③□□④ |①---|
□⑤⑥□ |②-③-|
□□④② |④-⑤⑥|
□□⑦① |⑦---|
14
□④□□ |①---|
□□⑥⑤ |②-③-|
③□④② |④-⑤⑥|
□②⑦① |⑦---|
15
③□④□ |①---|
□⑤⑥□ |②-③-|
□□④② |④-⑤⑥|
□□⑦① |⑦---|
16
□⑥□⑦ |①-②-|
④□⑨⑧ |③-④-|
□③⑤③ |⑤-⑥-|
②□⑦① |⑦-⑧⑨|
17
□□③□ |①---|
③□□④ |②---|
□④③② |③---|
□□④① |④---|
18
□①□② |①--②|
②□①□ |--③④|
①□②□ |-⑤⑥-|
□②□① |⑦---|

□□④□
□③□□
⑦⑥□⑦
⑦□⑤⑦
19
①⑦④① |①---|
②④□② |②-③-|
□⑥⑤□ |④-⑤⑥|
□③□□ |⑦---|
20
①⑦□④ |①---|
②④□□ |②-③-|
⑤⑥□□ |④-⑤⑥|
②⑧⑧③ |⑦-⑧-|
21
①⑦□④ |①---|
②④□③ |②-③-|
□⑥⑤□ |④-⑤⑥|
⑧⑧□□ |⑦-⑧-|
22
①□□④ |①---|
②④□□ |②-③-|
③□□□ |④-⑤⑥|
□□□② |⑦⑧⑨⑩|

□⑦□□
□□□□
□⑩⑨⑧
⑤⑥□□
23
①⑦④② |①---|
②④□□ |②-③-|
□⑥⑤□ |④-⑤⑥|
□□③□ |⑦---|
24
①⑥□③ |①---|
②④□□ |②-③-|
⑦⑧□□ |④-⑤-|
②⑥□⑤ |⑥-⑦⑧|
25
①⑤□⑤ |①---|
②④□③ |②-③-|
□□⑤□ |④---|
④□④□ |⑤---|
26
①⑥①□ |①-②③|
⑨□⑤⑨ |-④⑤⑥|
②③⑧④ |-⑦⑧-|
⑨⑦⑩⑨ |⑨-⑩-|
27
①□①□ |①-②③|
□□④□ |④-⑤-|
②③□□ |⑥-⑦-|
□⑤□□ |⑧-⑨-|

□⑥⑧⑧
□□□□
□□⑦⑦
⑨∧□□

□8□□
□□□□
□□□□
□□□□
28
④□□□ |①--②|
①□③① |③-④-|
□②□□ |⑤-⑥-|
□□□□ |⑦---|

□∨⑦⑦
□□□□
□□⑥⑥
□⑤□□

□□□□
□□□□
□□□□
□7□□
29
□①⑥⑩ |①-②③|
⑨⑨③② |④-⑤-|
□④⑧□ |⑥-⑦⑧|
⑦⑦①⑤ |⑨-⑩-|
30
①□□□ |①-②③|
□□①□ |④--⑤|
□□□② |--⑥-|
□□□□ |⑦-⑧⑨|

⑦⑦④∨
⑧⑨□□
⑥⑥□□
□⑤⑤③

□□□□
□□□□
□□□□
□□□7
31
□□②□ |①--②|
□□①□ |--③-|
③□□② |④---|
③□□□ |--⑤-|

□□□□
□□∨∨
□□□□
□□④④

□□□□
□□□□
□⑤⑤□
□□□□

□□□□
□□□□
□□□□
□□55
32
①①③□ |①--②|
□□□② |--③-|
②□□□ |④--⑤|
□③□□ |--⑥-|

⑤□□④
④□⑤□
□⑤□④
④□□⑤

□□□∨
>⑥□⑥
⑥□⑥<
∧□□□
33
□□□□ |----|
□□□□ |----|
□□□□ |----|
□□□□ |----|
34
□□□□ |①---|
④□④□ |②---|
□③□③ |③---|
②□②□ |④---|

□□□□
□1□1
1□1□
□□□□
35
□①□① |①--②|
□②□□ |③-④-|
③⑤⑦④ |⑤---|
①⑥⑤□ |⑥-⑦-|
36
□①①□ |①--②|
□②□□ |③-④-|
③⑤⑦④ |⑤---|
①⑥⑤□ |⑥-⑦-|
37
⑤⑤①① |①--②|
□□②⑥ |③-④-|
③⑤⑧④ |⑤--⑥|
①⑦□□ |⑦-⑧-|
38
□□□□ |①-②③|
①①②□ |④-⑤-|
□□□□ |⑥-⑦⑧|
①□□□ |⑨-⑩-|

□□③□
□□□□
④□□⑤
□□∧□

⑦⑧□□
□□□□
□⑥⑩□
□⑨⑥□

□□6□
□□□□
□□□□
□□□□
39
□□□□ |①-②③|
□①③② |④---|
④□□□ |⑤-⑥⑦|
①□□□ |⑧-⑨-|

□□□⑨
⑥⑦□□
□⑤□□
□⑧⑤□
40
□□∨□ |①---|
□□□□ |②---|
②③①□ |③---|
①④□□ |④-⑤⑥|

□□⑥⑤
□□□□
□□□□
□□□□

□□□□
□□□□
□□4□
□□□□
41
④⑦⑦⑤ |①---|
④①□⑤ |②-③-|
②④□□ |④--⑤|
①⑥③③ |⑥-⑦-|
42
□□∨□ |①---|
□□□□ |②---|
②③①□ |③--④|
①□□□ |-⑤⑥-|

⑤⑤□□
④④□⑥
□□□□
□□□□

□□□□
□□□□
□□3□
□□□□
43
□□□□ |①--②|
□⑧②□ |③-④-|
④⑦⑤③ |⑤---|
①⑤⑥① |⑥-⑦⑧|
44
□①□□ |①--②|
□□②□ |③-④-|
④⑦⑤③ |⑤---|
□⑤⑥① |⑥-⑦-|
45
①①⑤⑤ |①--②|
⑥□②□ |③-④-|
④⑧⑤③ |⑤--⑥|
□□⑦① |⑦-⑧-|
46
①□□< |①--②|
□②□□ |③-④-|
④□□③ |⑤---|
□□□① |⑥-⑦-|

□⑤⑤□
□□□□
□⑦⑤□
□□⑥□

5□□□
□□□□
□□□□
□□□□
47
□□□□ |①-②③|
②③①□ |④---|
□□□④ |⑤--⑥|
□□□① |⑦-⑧-|

⑧⑧□□
□□⑥□
□□⑤□
□⑤⑦□
48
□□□□ |①---|
>□□① |②---|
□□③② |③---|
□□④① |④-⑤⑥|

□□□□
⑤⑥□□
□□□□
□□□□

□□□□
□□□4
□□□□
□□□□
49
□④④□ |①---|
□□⑦□ |②-③-|
□⑤④② |④--⑤|
③③⑥① |⑥-⑦-|
50
①□□① |①--②|
②□□② |--③-|
③□□③ |④---|
□④④□ |----|
51
□□□□ |①---|
>□□① |②-③-|
□□□□ |④---|
□□□□ |⑤-⑥⑦|

□□□□
□②□□
□□③□
□□□□

□∨⑦⑥
□□□□
⑤□□□
□④□□

□□□□
□□□4
□□□□
□5□□
52
□①□□ |①---|
□□□□ |②-③-|
□□□□ |④---|
□∧□□ |⑤-⑥⑦|

□□□□
□□②□
□③□□
□□□□

□□∨□
⑥⑦□□
□□□⑤
□□④□

□4□□
□□□□
□□□□
□□5□
53
□□□□ |①---|
□□①□ |②-③-|
□□□□ |④---|
□□∧□ |⑤-⑥⑦|

□②□□
□□□□
□□③□
□□□□

□∨⑦⑥
□□□□
⑤□□□
□④□□

□□□□
□□4□
□□□□
□5□□
54
□①□□ |①---|
□□③□ |②---|
□□□□ |③-④-|
□∧②□ |⑤-⑥-|

⑥□□□
⑤⑥□□
④⑤□□
□④□□

□3□□
□□□□
□□□□
□□□□
55
□□□③ |--①-|
□⑤③② |②-③-|
⑤④②① |--④-|
④□①□ |⑤-⑥-|

□⑥□□
⑥□□<
□□□□
□∧□□
56
□□□□ |----|
□□□② |①-②③|
□□③□ |④---|
□④⑤⑤ |--⑤-|

□1□□
1□□□
□□□□
□□□□
57
①□③② |①--②|
□③①□ |--③-|
①②□② |④-⑤⑥|
□③□□ |--⑦-|

□④□□
④□⑥④
□⑦⑤□
⑦□□⑦
58
①□□① |①---|
□□□□ |----|
①□□① |----|
□□□□ |----|
59
□③②① |①--②|
④□□□ |--③-|
□□□□ |④---|
∧□□□ |⑤---|

□□□□
5□□□
□□□□
□□□□
60
□□□□ |①--②|
□□□∨ |--③-|
①②③□ |④---|
□□□④ |⑤---|

□□□□
□□□□
□□□□
□□□5
61
□□□□ |①---|
□①①□ |----|
□□□□ |----|
□∧∧□ |----|
62
□□□□ |----|
□11□ |----|
□□□□ |①---|
□□□□ |----|
63
⑦□□⑦ |①-②③|
②③⑥⑤ |----|
□□□□ |④-⑤⑥|
④①①④ |--⑦-|
64
□∨∨□ |①---|
□□□□ |----|
□①①□ |----|
□□□□ |----|
65
□□□□ |①---|
①><① |----|
□□□□ |----|
□□□□ |----|
66
□□□□ |----|
□□□□ |----|
□□□□ |----|
□□□□ |----|
67
□□□□ |①---|
1□□1 |----|
□11□ |----|
□□□□ |----|
68
□□□□ |----|
□□□□ |----|
□□□□ |----|
□□□□ |----|
最終更新:2024年09月14日 15:05