アットウィキロゴ
BPM:92
1
□□□□ |①--②|
□①⑤② |--③-|
①□□③ |-④--|
□□⑥④ |⑤-⑥-|
2
□□□② |①--②|
□①⑤③ |--③-|
①□□④ |-④--|
□□⑥□ |⑤-⑥-|
3
□□□□ |①--②|
□①⑤② |--③-|
①□□③ |-④--|
□□⑥④ |⑤-⑥-|
4
□□□② |①--②|
□①□③ |--③-|
①□□□ |④---|
□□□□ |⑤---|

⑤□□⑤
□□□□
□④④□
□□□□
5
□□□□ |①-②-|
①□□□ |③-④-|
□①④③ |⑤-⑥-|
□□②□ |⑦-⑧⑨|

□□□⑦
□□⑥⑤
□□⑧□
□□⑨□
6
□□□□ |--①-|
□□□□ |②-③-|
②③□□ |④-⑤-|
□①□□ |⑥-⑦⑧|

⑥□□□
④⑤□□
□⑦□□
□⑧□□
7
⑥□□□ |--①-|
④□□⑤ |②-③-|
②□⑦③ |④-⑤-|
□□□① |⑥-⑦-|
8
□②①□ |①-②-|
□⑥⑤□ |③-④-|
⑧③⑦□ |⑤-⑥⑦|
□⑨④□ |-⑧⑨-|
9
□□□□ |--①-|
□□□② |②-③-|
□□③□ |④-⑤-|
□□①□ |⑥-⑦⑧|

□□⑤④
□□□□
□□⑦□
□□⑧⑥
10
□□□□ |--①-|
②□□□ |②-③-|
□□□□ |④-⑤-|
③①□□ |⑥-⑦⑧|

⑥□□□
□④□□
⑤⑦□□
□⑧□□
11
⑥□□□ |--①-|
④□□⑤ |②-③-|
②□□③ |④-⑤-|
□□□① |⑥---|
12
□□□① |①-②-|
□□②⑥ |③-④-|
□③⑤□ |--⑤-|
④⑦□□ |⑥-⑦-|
13
⑤①①⑥ |①-②-|
②□□③ |③-④-|
⑧④④⑦ |⑤-⑥-|
□⑦⑧□ |⑦-⑧-|
14
④□□④ |①-②-|
③□□⑤ |③-④-|
⑥□□⑦ |⑤-⑥-|
①⑧⑧② |⑦-⑧-|
15
□□□□ |①-②-|
③①□② |③-④-|
□①④④ |⑤-⑥-|
□□□□ |⑦-⑧-|

⑥⑥⑧⑦
□□□⑧
⑤□□□
□□□□
16
①③□② |--①-|
④□⑤□ |②-③-|
□②①⑥ |④-⑤-|
□⑦□□ |⑥-⑦-|
17
②①①⑤ |①---|
④□□③ |②---|
②□□⑤ |③-④-|
□⑥⑥□ |⑤-⑥-|
18
⑤④④⑥ |①-②-|
□□□③ |③-④-|
⑦□⑧⑧ |⑤-⑥-|
②□□① |⑦-⑧-|
19
③□□② |①-②-|
①①□□ |③-④-|
□□④④ |⑤-⑥-|
□□□□ |⑦-⑧-|

⑦□⑧⑧
⑤□⑥⑥
□□□□
□□□□
20
□□□□ |①-②-|
①□④② |③-④-|
③□②④ |⑤-⑥-|
□□□□ |⑦-⑧-|

⑦□⑥⑧
⑤□⑧⑥
□⑧□□
□□□□
21
□□□□ |①-②-|
④□□□ |③-④-|
②④□① |⑤-⑥-|
□□④③ |⑦-⑧-|

□□□□
□□□□
□⑧⑦⑥
⑤⑦⑧□
22
∨∨∨∨ |①---|
①①①① |----|
□□□□ |②-③-|
□□□□ |④-⑤-|

⑤③③⑤
□□□□
□④④□
□□□□

□□□□
2222
□□□□
□□□□
23
□□□□ |①---|
□□□□ |----|
∨∨∨∨ |②-③-|
①①①① |④-⑤-|

□□□□
⑤④□③
③□④⑤
□□□□

□□□□
□□□□
□□□□
2222
24
□□①< |①---|
□□①< |----|
>①□□ |②-③-|
>①□□ |④-⑤-|

③□□□
④□□⑤
⑤□□④
□□□③

□□2□
□□2□
□2□□
□2□□
25
□②③① |①-②-|
□②③□ |--③-|
□③②□ |--④-|
①③②□ |⑤-⑥-|

□□□□
④□□⑤
□□□□
⑤⑥⑥④
26
①><① |①---|
④□□③ |----|
①><① |②---|
③□□④ |③-④-|

2□□2
□□□□
2□□2
□□□□
27
>□①□ |①---|
□□□□ |----|
>□①□ |②-③-|
□□□□ |④-⑤-|

□①□<
□□□□
□①□<
□□□□

□□□③
⑤□□④
④□□⑤
③□□□

□22□
□□□□
□22□
□□□□
28
>□①□ |①---|
□①□< |----|
>□①□ |②-③-|
□①□< |④-⑤-|

□□□□
□□□□
⑤④□⑤
③□④③

□□2□
□2□□
□□2□
□2□□
29
□②□② |①-②-|
②①②□ |--③-|
□③①③ |--④-|
③□③□ |⑤-⑥-|

④□④□
□⑤□⑤
⑥□⑥□
□□□□
30
②□□□ |①-②-|
□□③□ |③④-⑤|
□④□□ |-⑥--|
①①①① |⑦-⑧-|

□⑦⑦□
⑥□□□
⑥□□□
□⑧⑧⑤
31
□⑦⑦② |①-②-|
□③□⑥ |③④-⑤|
□□④⑥ |-⑥--|
⑤⑧⑧① |⑦-⑧-|
32
①⑦□③ |①-②-|
□□④⑥ |③④-⑤|
□□□□ |-⑥--|
∧□⑤② |⑦---|

7□□□
□□□□
□□□□
□□□□
33
∨□□③ |①-②-|
□□④⑥ |③④-⑤|
□□□□ |-⑥--|
①⑦⑤② |⑦---|

□□□□
□□□□
□□□□
7□□□
34
□□□② |①-②-|
①③□① |③④-⑤|
①□④① |-⑥--|
□□□□ |⑦-⑧-|

□⑦⑦□
□□□⑥
□□□⑥
⑤⑧⑧□
35
②⑦⑦□ |①-②-|
⑥□③□ |③④-⑤|
⑥④□□ |-⑥--|
①⑧⑧⑤ |⑦-⑧-|
36
③□⑦① |①-②-|
⑥④□□ |③④-⑤|
□□□□ |-⑥--|
②⑤□∧ |⑦---|

□□□7
□□□□
□□□□
□□□□
37
③□□∨ |①-②-|
⑥④□□ |③④-⑤|
□□□□ |-⑥--|
②⑤⑦① |⑦---|

□□□□
□□□□
□□□□
□□□7
38
□∨∨□ |①---|
①><① |----|
□①①□ |----|
□□□□ |----|
39
□□□□ |----|
□□□□ |----|
□□□□ |----|
□□□□ |----|
40
□□□□ |①---|
1□□1 |----|
□11□ |----|
□□□□ |----|
最終更新:2024年01月23日 17:36