アットウィキロゴ
BPM:130
1
⑤□⑤□ |①---|
□②□□ |②-③-|
④□④③ |④--⑤|
⑥①①⑥ |--⑥-|
2
④□④□ |--①-|
□□①□ |②-③-|
⑤②⑤□ |④--⑤|
□□③□ |----|
3
□□□① |①-②-|
□②□□ |③-④-|
□□③□ |⑤--⑥|
④□□□ |--⑦-|

□⑥□⑥
⑦□□⑦
□⑤□⑤
□□□□
4
⑤□②□ |--①-|
⑤④□⑥ |②-③-|
④①⑥⑦ |④-⑤-|
□□③⑦ |⑥-⑦-|
5
⑥⑤⑥⑤ |①---|
□⑥②⑥ |②-③-|
③④□④ |④--⑤|
□①①□ |--⑥-|
6
□□⑤⑤ |--①-|
⑥⑥①□ |②-③-|
□②□□ |--④-|
④□③④ |⑤-⑥-|
7
□□□□ |①---|
□□④□ |----|
□③①① |--②-|
□□②□ |③-④-|
8
②□□④ |①②-③|
⑤⑥⑧⑦ |④-⑤⑥|
①□□③ |⑦⑧⑨-|
□⑨□□ |⑩-⑪-|

□□□⑪
□□□□
□⑩⑩□
□□□□
9
③□③□ |①-②-|
①□⑤④ |③-④⑤|
□⑥□□ |⑥-⑦-|
①□②⑦ |⑧⑨⑩⑪|

□□□□
⑧⑨□□
□□⑪⑩
□□□□
10
□②②⑩ |①-②-|
□⑨⑧⑦ |③④⑤-|
⑥⑪⑫⑬ |⑥⑦⑧⑨|
①③④⑤ |⑩⑪⑫⑬|
11
③□③⑦ |①-②-|
①□⑤④ |③-④⑤|
□⑥□⑦ |⑥-⑦-|
①□②□ |⑧⑨⑩-|

□□□□
□□□□
□□□□
□⑧⑨⑩
12
□⑦④□ |①②③-|
⑦②①④ |④⑤-⑥|
③⑤⑥□ |⑦-⑧⑨|
□□□□ |-⑩⑪-|

⑩□□⑨
□□□□
⑪□□⑧
□□□□
13
□③□③ |①-②-|
④⑤□① |③-④⑤|
□□⑥□ |⑥-⑦-|
⑦②□① |⑧⑨⑩⑪|

□□□□
□□⑨⑧
⑩⑪□□
□□□□
14
⑩②②□ |①-②-|
⑦⑧⑨□ |③④⑤-|
⑬⑫⑪⑥ |⑥⑦⑧⑨|
⑤④③① |⑩⑪⑫⑬|
15
⑦③□③ |①-②-|
④⑤□① |③-④⑤|
⑦□⑥□ |⑥-⑦-|
□②□① |⑧⑨⑩-|

□□□□
□□□□
□□□□
⑩⑨⑧□
16
□□□□ |①②③④|
⑧⑦⑥□ |⑤⑥⑦⑧|
⑤②③④ |⑨⑩⑪⑫|
□□□① |⑬⑭⑮-|

⑬⑩⑪⑫
□□□⑨
□□⑭□
□⑮□□
17
□□□□ |①-②-|
□□⑤⑥ |③④⑤⑥|
③④□□ |--⑦-|
②□①① |⑧-⑨-|

□□□□
⑧□□□
□□□□
□⑨⑦⑦
18
②②□④ |①--②|
□⑤⑥□ |--③-|
①①□③ |-④--|
□□□□ |⑤-⑥-|
19
⑤⑤□□ |①-②-|
□□□□ |③④-⑤|
□□④③ |--⑥-|
①①□② |⑦-⑧-|

□□□□
□⑦□□
□□□□
⑥⑧□□
20
①①□□ |①--②|
□④□□ |--③④|
②②③□ |⑤-⑥-|
□□□□ |⑦-⑧-|

⑥□⑤⑤
⑥□□□
□□□⑧
⑦⑦□⑧
21
□□□② |①-②-|
⑧①⑤⑥ |③④⑤⑥|
③④①□ |--⑦-|
□⑨⑦⑦ |⑧-⑨-|
22
②②④④ |①--②|
⑤⑤□□ |--③-|
①①⑥⑥ |④-⑤-|
⑦⑦□③ |⑥-⑦-|
23
④□③□ |①-②③|
□□②□ |--④-|
□□□□ |⑤--⑥|
□□①① |--⑦-|

□⑥□⑦
⑥□⑥□
□⑥□□
⑤⑤□□
24
□□②□ |①--②|
□②□② |----|
□□②□ |----|
□□①① |----|
25
□□□□ |①-②-|
⑥⑤□□ |③④⑤⑥|
□□④③ |--⑦-|
①①□② |⑧-⑨-|

□□□□
□□□⑧
□□□□
⑦⑦⑨□
26
④□②② |①--②|
□□□□ |--③-|
③□①① |-④--|
□□□□ |⑤-⑥-|

□□⑤□
□⑥□□
□□□□
□□□□
27
□□④⑤ |①-②-|
③□□□ |③-④⑤|
□③□□ |--⑥-|
②□①① |⑦-⑧-|

□□□□
□□⑦□
□□□□
□□⑧⑥
28
□□①① |①--②|
□□④□ |--③④|
□③②② |⑤-⑥-|
□□□□ |⑦-⑧-|

⑤⑤□⑥
□□□⑥
⑧□□□
⑧□⑦⑦
29
②□□□ |①-②-|
⑥⑤①⑧ |③④⑤⑥|
□①④③ |--⑦-|
⑦⑦⑨□ |⑧-⑨-|
30
④④②② |①--②|
□□⑤⑤ |--③-|
⑥⑥①① |④-⑤-|
③□⑦⑦ |⑥-⑦-|
31
□②□③ |①--②|
□□②□ |--③④|
④□□□ |⑤--⑥|
①①□□ |--⑦⑧|

⑦□⑥□
□⑥□⑥
□□⑥⑧
□□⑤□
32
□②□□ |①--②|
②□②□ |----|
□②□□ |③-④-|
□①□□ |⑤-⑥-|

⑥⑤④③
⑤□□④
□⑥③□
□□□□
33
□□②□ |①---|
③①①□ |②-③-|
□□□② |④--⑤|
□③□□ |--⑥-|

□⑤□⑤
□□⑤□
□④□□
④□④⑥
34
⑨③②⑨ |①-②-|
①⑥⑦④ |③-④-|
③⑤⑧② |⑤⑥⑦⑧|
□①④□ |⑨---|
35
⑦⑦□□ |①-②-|
①③□② |③④⑤-|
⑥⑥④□ |⑥--⑦|
①⑤⑧② |--⑧-|
36
□□①① |①-②-|
③③□□ |③-④-|
□□②② |⑤-⑥⑦|
④④□□ |⑧---|

□⑧⑧□
□□⑤⑤
□⑦□□
□□⑥□
37
①□□③ |①-②-|
□□□□ |③-④⑤|
①⑤□③ |⑥--⑦|
□②④□ |--⑧-|

□⑦□□
⑦□⑥□
□□□□
⑧⑧□□
38
②④①③ |①-②-|
□□□□ |③-④-|
②④①③ |⑤⑥⑦⑧|
□□□□ |⑨-⑩-|

□□□□
⑧⑦⑥⑤
⑩□□□
⑩□⑨□
39
□②①□ |①-②-|
③□③□ |③-④-|
□①□① |⑤--⑥|
□③④□ |--⑦-|

□⑦⑦□
□□□□
⑥□□⑥
⑤□□⑤
40
④□□② |①②-③|
□□□□ |④-⑤⑥|
□③①□ |⑦⑧⑨⑩|
□□□□ |⑪⑫⑬-|

□⑬⑬□
⑦⑧⑥⑤
⑪⑫⑩⑨
□□□□
41
□□□□ |①-②-|
③④□① |③④⑤-|
□□⑤□ |⑥-⑦⑧|
□②□① |⑨-⑩-|

⑥□□⑥
□□⑨□
⑦⑧□□
□⑩⑩□
42
□①①□ |①-②-|
□□④③ |③④⑤-|
□⑤□□ |⑥⑦⑧⑨|
②□□② |⑩-⑪-|

□⑩⑩□
⑥⑦□□
□□⑧⑨
□□□⑪
43
①□□③ |①-②-|
□□□□ |③-④-|
①□□③ |⑤⑥⑦⑧|
□④②□ |⑨-⑩-|

□□□□
⑤⑥⑦⑧
⑩□□⑩
⑨□□□
44
⑧①②③ |①②③-|
⑧⑦□⑨ |④⑤⑥-|
⑦□⑨⑩ |⑦-⑧-|
⑥⑤④⑩ |⑨-⑩-|
45
□①□□ |①-②-|
③④□□ |③④⑤-|
□①⑤□ |⑥-⑦⑧|
□□②□ |⑨-⑩-|

⑥⑩⑩⑥
□□⑧⑦
□⑨□□
□□□□
46
⑧⑨⑦② |①-②-|
①□⑩⑤ |③④⑤-|
⑥□②⑦ |⑥-⑦-|
③④⑩⑤ |⑧⑨⑩-|
47
□□□□ |①-②-|
⑤⑥□① |③④⑤⑥|
□□④③ |⑦-⑧-|
□②□① |⑨-⑩-|

⑧⑩⑦□
□□□⑨
⑩⑧□□
□□⑨□
48
□□□⑤ |①②③④|
⑥②①□ |⑤⑥⑦⑧|
□□⑦③ |⑨⑩⑪⑫|
⑧④□□ |⑬⑭⑮-|

⑩□⑨□
□⑮⑮⑪
⑫□□⑬
□⑭□□
49
③□③□ |①-②-|
①□⑤④ |③-④⑤|
□⑥□□ |⑥-⑦⑧|
①□②□ |-⑨⑩⑪|

□□□□
□⑦□□
□□⑩⑨
□⑪⑧□
50
③②②□ |①-②-|
□④⑤□ |③④⑤⑥|
□□□⑥ |⑦-⑧⑨|
①□⑦□ |-⑩⑪-|

□⑨□⑩
□□□□
⑧□⑪□
□□□□
51
③□③□ |①-②-|
①□⑤④ |③-④⑤|
□⑥□□ |⑥-⑦⑧|
①□②□ |-⑨⑩⑪|

□□□□
□⑦□□
□□⑩⑨
□⑪⑧□
52
□②②□ |①-②-|
□⑥⑤④ |③④⑤⑥|
③⑧⑨⑩ |⑦⑧⑨⑩|
①□⑦□ |⑪⑫⑬-|

□⑪□⑫
□□□□
⑬□□□
□□□□
53
③□③□ |①-②-|
①□⑤④ |③-④⑤|
□⑥□□ |⑥-⑦⑧|
①□②□ |-⑨⑩⑪|

□□□□
□⑦□□
□□⑩⑨
□⑪⑧□
54
③②②□ |①-②-|
□④⑤□ |③④⑤⑥|
□□□⑥ |⑦-⑧⑨|
①□⑦□ |-⑩⑪-|

□⑨□⑩
□□□□
⑧□⑪□
□□□□
55
③□③□ |①-②-|
①□⑤④ |③-④⑤|
□⑥□□ |⑥-⑦⑧|
①□②□ |-⑨⑩⑪|

□□□□
□⑦□□
□□⑩⑨
□⑪⑧□
56
□②②□ |①-②-|
□⑥⑤④ |③④⑤⑥|
③□□□ |⑦⑧⑨⑩|
①□□□ |⑪---|

⑪⑪□□
⑪□□□
□⑧⑨⑩
□□⑦□
57
□□□□ |----|
□□□□ |----|
□□□□ |----|
□□□□ |----|
最終更新:2024年01月23日 17:37