アットウィキロゴ
BPM:144
1
④④□□ |①-②-|
□□⑥⑤ |③-④-|
⑦⑦③② |⑤-⑥-|
①①□⑧ |⑦-⑧-|
2
⑤□④③ |①-②-|
②②⑤□ |③-④-|
□⑥□□ |⑤---|
□□①⑥ |⑥---|
3
④④□□ |①-②-|
□□⑥⑤ |③-④-|
⑦⑦③② |⑤-⑥-|
①①□⑧ |⑦-⑧-|
4
⑤□④③ |①-②-|
②②⑤□ |③-④-|
□⑥□□ |⑤---|
□□①⑥ |⑥---|
5
④④□□ |①-②-|
□□⑥⑤ |③-④-|
①□③② |⑤-⑥-|
①□□□ |⑦-⑧-|

□□□□
□□□□
⑦□□□
⑦□□⑧
6
⑤□④③ |①-②-|
②②⑤□ |③-④-|
□⑥□□ |⑤---|
□□①⑥ |⑥---|
7
④④□□ |①-②-|
①□⑥⑤ |③-④-|
⑦□③② |⑤-⑥-|
①⑦□⑧ |⑦-⑧-|
8
⑤②④③ |①-②-|
②□⑤□ |③-④-|
□⑥□□ |⑤---|
□□①⑥ |⑥---|
9
□□④□ |①---|
①②③① |②-③-|
□⑤□□ |④---|
□⑥□□ |⑤-⑥-|
10
□□③③ |--①-|
②□□□ |②-③-|
④④□① |--④-|
□□□□ |----|
11
□□□□ |----|
□②①□ |①-②-|
□③④□ |③-④-|
⑤□□□ |--⑤-|
12
□□③③ |--①-|
②□□① |②-③-|
□□□□ |----|
□□□□ |----|
13
□□④□ |①---|
①②③① |②-③-|
□⑤⑥□ |④---|
□□□□ |⑤-⑥-|
14
□□□□ |①-②-|
□□□④ |③-④-|
③□□□ |--⑤-|
□②①□ |--⑥-|

□□□□
□□□□
□□□□
⑤⑥□⑤
15
④④③□ |①-②-|
□□②□ |③-④-|
□①□□ |--⑤-|
□□□□ |⑥-⑦-|

□□⑦□
□□□⑦
⑦□⑤□
□⑦⑥□
16
□③□□ |--①-|
③□①⑥ |②-③-|
⑤②□③ |--④-|
□□③④ |⑤-⑥-|
17
①①③③ |①-②-|
□⑤⑤□ |--③-|
④④②② |④---|
□⑥⑥□ |⑤-⑥-|
18
①②□□ |--①-|
□□④③ |②-③-|
⑤⑥□□ |④-⑤-|
□□□⑦ |⑥-⑦-|
19
①①③③ |①-②-|
□⑤⑤□ |--③-|
④④②② |④---|
□⑥⑥□ |⑤-⑥-|
20
③□□□ |----|
②□□① |①---|
①□□② |②---|
□□□③ |③---|
21
③③①① |①-②-|
□⑤⑤□ |--③-|
②②④④ |④---|
□⑥⑥□ |⑤-⑥-|
22
□□□□ |----|
□□①① |----|
②□□② |①---|
①①□□ |②---|
23
□□□□ |①---|
①①□□ |②---|
□□□□ |③---|
□□①① |④---|

□□□③
□□□□
□□□□
②□□④
24
①□□□ |①---|
□①□□ |----|
□□①□ |②-③-|
□□□□ |④---|

④□□④
□□②□
④□□④
□③□□
25
□□①□ |①---|
①□□③ |②-③-|
□①□□ |--④-|
□□□② |--⑤-|

④□□□
□⑤④□
□④□⑤
□□⑤□
26
③□□② |----|
□□④□ |①---|
□□□□ |②---|
□□□① |③-④-|
27
③④③④ |①---|
④③④③ |②-③-|
①□□□ |--④-|
⑤②②⑤ |--⑤-|
28
①④③② |----|
□□□□ |①---|
□□□⑤ |②③④-|
⑥□□□ |⑤-⑥-|
29
③□□□ |①---|
□①□① |②-③-|
②□①□ |--④-|
□□□□ |--⑤-|

□□□④
⑤④□□
□□⑤④
⑤□□□
30
□②②□ |----|
②□□② |①---|
□□□□ |②---|
□①①□ |----|
31
②□□① |①---|
□□□□ |--②-|
□□□□ |----|
①□□② |③---|

□③③□
□③□③
③③□□
③③□□
32
①④③② |----|
□□□□ |①---|
□□□⑤ |②③④-|
⑥□□① |⑤-⑥-|
33
①□□□ |①---|
□③□① |②-③-|
□□①□ |--④-|
□②□□ |--⑤-|

□□□④
④□□⑤
⑤□④□
□⑤□□
34
②□□③ |----|
□④□□ |①---|
□□□□ |②---|
①□□□ |③-④-|
35
④□④③ |①---|
③□③④ |②-③-|
□□□① |--④-|
⑤②②⑤ |--⑤-|
36
②③④① |----|
□□□□ |①---|
⑤□□□ |②③④-|
□□□⑥ |⑤-⑥-|
37
④□□③ |①---|
①④①⑤ |②-③-|
④①⑤② |--④-|
□□□⑤ |--⑤-|
38
②□□③ |----|
□□④□ |①---|
□□□□ |②---|
①□□□ |③-④-|
39
⑤①⑤□ |①---|
□④□③ |②-③-|
⑤①②□ |----|
□□□③ |④-⑤-|
40
□□□② |----|
□□□□ |①---|
④□□□ |②---|
□③□① |③-④-|
41
⑤③④③ |①---|
①④②④ |②-③-|
□③④③ |--④-|
□□□⑤ |--⑤-|
42
□□□① |--①-|
□□□□ |--②-|
③□□③ |----|
①②②□ |③---|
43
□□①□ |①---|
□①□□ |②-③-|
□□①□ |④-⑤-|
②①□③ |⑥-⑦-|

□□□□
⑥□□⑦
④⑦⑦⑤
⑦□□□
44
□□□□ |--①-|
□⑥⑤□ |②-③-|
④⑥□③ |④-⑤-|
□②①□ |⑥---|
45
□□□□ |①---|
□⑤□① |②-③-|
□□③□ |④---|
⑤④②① |⑤---|
46
③④□□ |①---|
②□□□ |②---|
①□□□ |③---|
□□□□ |④---|
47
□□①② |①---|
□⑤③④ |②-③-|
□□①⑤ |④---|
□□□□ |⑤---|
48
□□□□ |①---|
□□□□ |②---|
□□□□ |③---|
④③②① |④---|
49
④□□□ |①---|
②③□□ |②-③-|
①□①□ |④---|
□□□□ |⑤---|

□⑤□□
□□□□
□□⑤□
□□□□
50
□□①② |①---|
□□□③ |②---|
□□□④ |③---|
□□□□ |④---|
51
□③□③ |①---|
□□□□ |--②-|
②□②□ |----|
□①□① |③---|
52
①□□④ |--①-|
⑦②⑤□ |②-③-|
□⑥③⑥ |④-⑤-|
□□□□ |⑥-⑦-|
53
□①①□ |①---|
□□□② |②-③-|
□③③□ |--④-|
□①①□ |⑤-⑥-|

□□□□
□⑥⑥⑥
⑤□□□
□□□④
54
②□□□ |----|
□□□④ |①---|
□□□□ |②---|
①□□③ |③-④-|
55
□①①□ |①---|
②□□□ |②-③-|
□③③□ |--④-|
□①①□ |⑤-⑥-|

□□□□
⑥⑥⑥□
□□□⑤
④□□□
56
□□□② |----|
④□□□ |①---|
□□□□ |②---|
③□□① |③-④-|
57
□①①□ |①---|
□□□② |②-③-|
□③③□ |----|
□①①□ |--④-|

□□□□
□□□④
□□□□
□□□□
58
□①①□ |①---|
②□□□ |②-③-|
□③③□ |--④-|
□①①□ |⑤-⑥-|

□⑥⑤□
⑥□□⑤
⑤□□⑥
④⑤⑥④
59
③□□④ |--①-|
□⑦⑦□ |②-③-|
⑤①②⑥ |④-⑤-|
□□□□ |⑥-⑦-|
60
□⑥□□ |--①-|
⑥□□④ |②-③-|
□③④□ |④---|
①⑤⑤② |⑤-⑥-|
61
④□⑦③ |--①-|
□⑥□⑦ |②-③-|
⑥②①⑤ |④-⑤-|
□□⑤□ |⑥-⑦-|
62
□⑦⑥□ |--①-|
□⑤④□ |②-③-|
□③②□ |④-⑤-|
□①□□ |⑥-⑦-|
63
□□□① |①---|
①□③□ |②-③-|
□①□□ |--④-|
□□②□ |--⑤-|

④□□□
⑤□□④
□④□⑤
□□⑤□
64
③□□② |----|
□□④□ |①---|
□□□□ |②---|
□□□① |③-④-|
65
③④□④ |①---|
④③□③ |②-③-|
①□□□ |--④-|
⑤②②⑤ |--⑤-|
66
①④③② |----|
□□□□ |①---|
□□□⑤ |②③④-|
⑥□□□ |⑤-⑥-|
67
③□□④ |①---|
⑤①④① |②-③-|
②⑤①④ |--④-|
⑤□□□ |--⑤-|
68
③□□② |----|
□④□□ |①---|
□□□□ |②---|
□□□① |③-④-|
69
□⑤①⑤ |①---|
③□④□ |②-③-|
□②①⑤ |----|
③□□□ |④-⑤-|
70
②□□□ |----|
□□□□ |①---|
□□□④ |②---|
①□③□ |③-④-|
71
③④③⑤ |①---|
④②④① |②-③-|
③④③□ |--④-|
⑤□□□ |--⑤-|
72
①□□□ |--①-|
□□□□ |--②-|
③□□③ |----|
□②②① |③---|
73
□①□□ |①---|
□□①□ |②-③-|
□①□□ |④-⑤-|
③□①② |⑥-⑦-|

□□□□
⑦□□⑥
⑤⑦⑦④
□□□⑦
74
□□□□ |--①-|
□⑤⑥□ |②-③-|
③□⑥④ |④-⑤-|
□①②□ |⑥---|
75
□□②□ |①---|
①□□① |--②-|
□□□□ |----|
①③□① |③---|
76
□①□□ |--①-|
□□□□ |----|
□□□□ |②---|
□□②□ |----|
77
□□③□ |----|
□②□□ |①②③---|
①□□□ |----|
□□□□ |----|
最終更新:2024年01月23日 17:37