アットウィキロゴ
BPM:180
1
⑥②□③ |①---|
①□④⑥ |②---|
□⑤⑥② |③-④-|
□□①□ |⑤-⑥-|
2
□□□③ |--①-|
①②④□ |--②-|
③③④① |--③-|
①□②② |--④-|
3
①①□□ |①---|
⑤□□□ |②---|
③④□③ |③---|
□②②□ |④-⑤-|
4
②□□□ |--①-|
□□③□ |--②-|
□④□□ |--③-|
□□①① |④---|
5
⑥②□③ |①---|
①□④⑥ |②---|
□⑤⑥② |③-④-|
□□①□ |⑤-⑥-|
6
□□□③ |--①-|
①②④□ |--②-|
③③④① |--③-|
①□②② |--④-|
7
①□□□ |①---|
⑤□□□ |②---|
③④□③ |③---|
□②②□ |④-⑤-|
8
②□□③ |--①-|
□□□□ |--②-|
②□□③ |--③-|
□□①① |----|
9
⑥□□□ |①---|
□①④⑤ |②-③-|
②③①□ |④-⑤-|
□□□□ |--⑥-|
10
□□□③ |--①-|
□④④□ |--②-|
□□□□ |--③-|
①□□② |--④-|
11
④□□□ |----|
□□□□ |--①-|
□□③□ |②-③-|
□②□① |--④-|
12
□□□③ |--①-|
□□□□ |--②-|
②□□① |--③-|
□□□□ |----|
13
□□□□ |①---|
④③①□ |②---|
□①□② |③-④-|
□□⑤□ |--⑤-|
14
□②④□ |--①-|
□□□① |--②-|
③□□□ |--③-|
□□□□ |--④-|
15
□④□□ |--①-|
②①□□ |②---|
□□□□ |③---|
□③③□ |--④-|
16
□□□④ |--①-|
③□①② |②---|
□□□□ |③-④-|
□□□□ |----|
17
⑥□□□ |①---|
□①④⑤ |②-③-|
②③①⑥ |④-⑤-|
□□□□ |--⑥-|
18
□□□③ |--①-|
□④④□ |--②-|
③□□□ |--③-|
①②①② |--④-|
19
④④□□ |----|
①□□① |①---|
□□③□ |②-③-|
□②□□ |--④-|
20
④④③③ |--①-|
②□□① |--②-|
②□□① |--③-|
□□□□ |④---|
21
□□□□ |①---|
□□①□ |②---|
□①□② |③-④-|
□□□□ |--⑤-|

□□□□
④③□□
□⑤□□
□□⑤□
22
□②④□ |--①-|
□□③① |--②-|
③□②□ |--③-|
□①□□ |--④-|
23
⑤⑤□□ |--①-|
②①□□ |②---|
□□□④ |③---|
□③③□ |④-⑤-|
24
□□□□ |--①-|
□□□③ |--②-|
①□□□ |--③-|
□□②② |----|
25
①□①□ |①---|
□②□□ |----|
①④①□ |②---|
□□③□ |③-④-|
26
⑤□□③ |①-②-|
②□①③ |--③-|
□□□④ |--④-|
□□□④ |--⑤-|
27
□□□□ |----|
□□①□ |①-②-|
□□②□ |----|
□□□□ |----|
28
□□□□ |①-②-|
□□□□ |③-④-|
①②③□ |----|
□□④□ |----|
29
□①□① |①---|
□□②□ |----|
□①④① |②---|
□③□□ |③-④-|
30
□□□□ |①-②-|
□①□② |--③-|
□□□□ |--④-|
□□□□ |--⑤-|

□⑤□④
③⑤⑤□
□④⑤□
□□③□
31
□□□④ |----|
①□□② |--①-|
③③□□ |②-③-|
①④□② |--④-|
32
②④③□ |--①-|
□①□□ |--②-|
□□①□ |--③-|
③□②④ |--④-|
33
□□□□ |①-②-|
②□□④ |③-④-|
①⑥⑧③ |⑤-⑥-|
□⑤⑦□ |⑦-⑧-|
34
□⑥⑧□ |①-②-|
②⑤⑦④ |③-④-|
①□□③ |⑤-⑥-|
□□□□ |⑦-⑧-|
35
□□□□ |①-②-|
②⑤⑧④ |③-④-|
①□□③ |⑤-⑥-|
⑦□⑧⑥ |⑦-⑧-|
36
□①②□ |--①-|
□③□□ |--②-|
□①②□ |--③-|
④③□④ |--④-|
37
□□□□ |①-②-|
④□□② |③-④-|
③⑧⑥① |⑤-⑥-|
□⑦⑤□ |⑦-⑧-|
38
□⑧⑥□ |①-②-|
④⑦⑤② |③-④-|
③□□① |⑤-⑥-|
□□□□ |⑦-⑧-|
39
□⑧⑦⑧ |①-②-|
⑥⑧□□ |③-④-|
□④②⑤ |⑤-⑥-|
□③①□ |⑦-⑧-|
40
□④□□ |--①-|
④□①② |--②-|
①②③④ |--③-|
③②④□ |--④-|
41
□□□□ |----|
□①①② |①---|
③□②□ |②-③-|
④③□④ |--④-|
42
③□□③ |--①-|
②①②□ |--②-|
□①②① |--③-|
□□□□ |----|
43
□①①□ |①---|
□①□① |----|
①①□□ |----|
①①□□ |----|
44
①②③④ |①②③④|
□□□⑤ |⑤---|
□□□⑩ |⑥⑦⑧⑨|
⑥⑦⑧⑨ |⑩---|
45
①□□② |①---|
□□①□ |②---|
①□□□ |③-④-|
□□□□ |⑤-⑥-|

□□□□
□③□⑥
⑥④□□
□⑤□⑥
46
□③③□ |--①-|
①②②□ |--②-|
□③□① |--③-|
①□②□ |----|
47
②③□② |①---|
□④□□ |②---|
□⑤□□ |③④⑤⑥|
①⑥⑦① |⑦---|
48
⑤□⑥④ |①②③④|
③⑨⑦② |⑤⑥⑦⑧|
①⑪⑧⑩ |⑨⑩⑪⑫|
⑬□□⑫ |⑬---|
49
□⑥□② |①---|
①□④① |②---|
①□⑤□ |③-④-|
□③□□ |⑤-⑥-|
50
⑥□□□ |--①-|
①⑥④⑤ |②-③-|
②④⑤□ |④-⑤-|
③□□□ |--⑥-|
51
□□③□ |①-②-|
②□□⑦ |③-④-|
④⑥□① |⑤-⑥-|
⑧□⑤① |⑦-⑧-|
52
□②□⑦ |①-②-|
□⑥③□ |③-④-|
④⑧①□ |⑤-⑥-|
□⑧⑤□ |⑦-⑧-|
53
□□③□ |①-②-|
②⑥⑦□ |③-④-|
⑧⑧□① |⑤-⑥-|
④□⑤□ |⑦-⑧-|
54
□②□□ |①-②-|
④⑥□③ |③-④-|
⑧□①⑦ |⑤-⑥-|
⑧□⑤□ |⑦-⑧-|
55
⑥②□③ |①-②-|
□□⑦⑤ |③-④-|
□④①□ |⑤-⑥-|
⑧□□□ |⑦-⑧-|
56
□⑥③□ |①-②-|
□②□⑦ |③-④-|
④⑧⑤□ |⑤-⑥-|
□⑧①□ |⑦-⑧-|
57
②□③□ |①-②-|
⑥□□⑦ |③-④-|
□□⑤□ |⑤-⑥-|
④⑧□① |⑦-⑧-|
58
②□□② |①---|
□④③□ |②---|
①⑥⑤① |③④⑤⑥|
⑧□□⑦ |⑦-⑧-|
59
③□②⑥ |①---|
⑥④□① |②---|
②⑥⑤□ |③-④-|
□①□□ |⑤-⑥-|
60
③□□□ |--①-|
□④②① |--②-|
①④③③ |--③-|
②②□① |--④-|
61
□□①① |①---|
□□□⑤ |②---|
③□④③ |③---|
□②②□ |④-⑤-|
62
□□□② |--①-|
□③□□ |--②-|
□□④□ |--③-|
①①□□ |④---|
63
③□②⑥ |①---|
⑥④□① |②---|
②⑥⑤□ |③-④-|
□①□□ |⑤-⑥-|
64
③□□□ |--①-|
□④②① |--②-|
①④③③ |--③-|
②②□① |--④-|
65
□□□① |①---|
□□□⑤ |②---|
③□④③ |③---|
□②②□ |④-⑤-|
66
③□□② |--①-|
□□□□ |--②-|
③□□② |--③-|
①①□□ |----|
67
□□□□ |①---|
①①①① |----|
□①①□ |----|
□□□□ |----|
68
□□□□ |----|
□□□□ |----|
□□□□ |----|
□□□□ |----|
69
□□□□ |----|
□□□□ |----|
□□□□ |----|
□□□□ |----|
最終更新:2024年01月23日 17:37