アットウィキロゴ
BPM:210
1
②□□⑤ |①---|
□④③□ |②---|
□③④□ |③-④-|
①□□① |--⑤-|
2
□①②□ |--①-|
③□□④ |②-③-|
□⑤⑥□ |④-⑤-|
⑦□□□ |⑥-⑦-|
3
⑤⑥②① |----|
□③④□ |①-②-|
□□□□ |③-④-|
□□□□ |⑤-⑥-|
4
□□□□ |--①-|
②⑤⑤② |②---|
①④④① |③-④-|
□③③□ |⑤---|
5
①①①① |①---|
②⑦□④ |②-③-|
③□⑥⑤ |④-⑤-|
□□□□ |⑥-⑦-|
6
□□□① |--①-|
□⑦②⑤ |②-③-|
□③⑥□ |④-⑤-|
④□□□ |⑥-⑦-|
7
⑦□□□ |--①-|
□□□⑥ |②-③-|
⑤③□① |④-⑤-|
□□②④ |⑥-⑦-|
8
□③□□ |--①-|
④□②⑦ |②-③-|
⑤□□① |④⑤⑥-|
⑥⑧□□ |⑦-⑧-|
9
□⑤④□ |①-②-|
⑧③⑥□ |③-④-|
□⑦②□ |⑤-⑥-|
□□□① |⑦-⑧-|
10
①□□□ |--①-|
□②□□ |②-③-|
□⑦③⑤ |④-⑤-|
□□⑥④ |⑥-⑦-|
11
⑦□⑥④ |①-②-|
③⑤□② |③-④-|
①⑦□□ |⑤-⑥-|
□□□□ |--⑦-|
12
□□□□ |--①-|
□④⑤□ |②-③-|
□⑦⑥③ |④-⑤-|
②□□① |⑥-⑦-|
13
②□□① |--①-|
③□□□ |--②-|
④□□⑤ |③-④-|
□□□□ |--⑤-|
14
□④□⑤ |--①-|
□①②③ |②-③-|
□□□□ |--④-|
□□□□ |--⑤-|
15
①□□□ |--①-|
②□□⑦ |②-③-|
③④⑤⑥ |④-⑤-|
□□□□ |⑥-⑦-|
16
①②③□ |--①-|
□□□□ |②-③-|
□□□□ |--④-|
④⑤□□ |⑤---|
17
□□□□ |----|
②□□① |①---|
③□□④ |②-③-|
□□□□ |--④-|
18
□①□⑥ |--①-|
□⑤②□ |②-③-|
□③④□ |④-⑤-|
□□□□ |--⑥-|
19
①□⑤□ |--①-|
②□□□ |②---|
□④③□ |③-④-|
□□□□ |--⑤-|
20
□□□□ |--①-|
□②③□ |②-③-|
①□□□ |--④-|
□⑤④□ |⑤---|
21
□①②③ |--①-|
□□□④ |②-③-|
⑥□□⑤ |④-⑤-|
□□□□ |--⑥-|
22
⑤□④□ |--①-|
③②①□ |②-③-|
□□□□ |--④-|
□□□□ |--⑤-|
23
□□□① |--①-|
⑦□□② |②-③-|
⑥⑤④③ |④-⑤-|
□□□□ |⑥-⑦-|
24
□③②① |--①-|
□□□□ |②-③-|
□□□□ |--④-|
□□⑤④ |⑤---|
25
□②□□ |----|
①□①□ |①---|
□②□□ |--②-|
□③□□ |--③-|
26
□□②① |--①-|
□□③□ |②-③-|
□□④⑤ |④-⑤-|
□□□□ |----|
27
□①②□ |①---|
①□□② |----|
□①②□ |②---|
□□□□ |----|
28
①□□② |①---|
□①②□ |②---|
①□□② |----|
□□□□ |----|
29
①□□③ |①---|
□②④□ |②---|
□⑤⑥□ |③-④-|
③□□① |⑤-⑥-|
30
□①□□ |--①-|
①□□□ |----|
□□□□ |②---|
③③②② |③---|
31
①□□③ |①---|
□②④□ |②---|
③⑤⑥① |③-④-|
□□□□ |⑤-⑥-|
32
③①②④ |--①-|
①□□② |--②-|
□□□□ |--③-|
□□□□ |④---|
33
□□□□ |①-②-|
⑦③⑧④ |③-④-|
□□□□ |⑤-⑥-|
①⑤②⑥ |⑦-⑧-|
34
⑦③⑧④ |①-②-|
□⑧□□ |③-④-|
①⑤②⑥ |⑤-⑥-|
□□□□ |⑦-⑧-|
35
□□□□ |--①-|
□□⑦□ |②-③-|
□⑥⑤□ |④-⑤-|
④②①③ |⑥-⑦-|
36
④③②① |①-②-|
□④□④ |③-④-|
□□□□ |----|
□□□□ |----|
37
□□□□ |----|
□□□□ |----|
□□□□ |①---|
□①①□ |----|
38
①⑤②① |①---|
②⑤④③ |②---|
①□□① |③-④-|
□□③④ |--⑤-|
39
□□②① |--①-|
□□□□ |②---|
④□③□ |③-④-|
③□④□ |----|
40
□④□③ |①---|
□②⑤① |②---|
□③□④ |③---|
□①□② |④-⑤-|
41
⑤□□⑤ |①---|
□②□① |②---|
□④□□ |③-④-|
□①③② |--⑤-|
42
□①④□ |----|
②③④① |①---|
□□□□ |②-③-|
③②□□ |--④-|
43
①②□□ |--①-|
⑥□□③ |②---|
□□□□ |③-④-|
⑤□□④ |⑤-⑥-|
44
□□□□ |----|
④③①□ |①-②-|
③□②① |----|
□□□□ |③-④-|
45
□□①□ |--①-|
□□□① |----|
③□□③ |②---|
□②②□ |③---|
46
①②⑤① |①---|
③④⑤② |②---|
□①①□ |③-④-|
④③□□ |--⑤-|
47
①②□□ |--①-|
□□□□ |②---|
□③□④ |③-④-|
□④□③ |----|
48
③⑥⑤□ |①---|
①④②□ |②---|
⑤□③⑥ |③-④-|
②□①□ |⑤-⑥-|
49
⑤□□⑤ |①---|
□④③□ |--②-|
⑤③④⑤ |③-④-|
②①①② |--⑤-|
50
□④①□ |----|
①④③② |①---|
□□□□ |②-③-|
□□②③ |--④-|
51
□□②① |--①-|
③□□④ |②---|
□□□□ |③-④-|
⑥□□⑤ |⑤-⑥-|
52
□④④□ |①---|
□③□□ |②---|
□②②□ |③---|
□□①□ |④---|
53
①□□□ |①---|
②□□② |②---|
□③③□ |③---|
④□□④ |④---|
54
□①□④ |①---|
□③①□ |②-③-|
②⑤□□ |--④-|
□□□□ |--⑤-|
55
④□⑥□ |①---|
□⑤□□ |②-③-|
□□③□ |--④-|
①□□② |⑤-⑥-|
56
□③□① |①---|
②□③⑤ |②-③-|
□□□□ |--④-|
□④□□ |--⑤-|
57
□③①□ |①---|
②①③□ |②-③-|
□□□□ |----|
□④□④ |④---|
58
①□①□ |①---|
□□③□ |②---|
□④□② |③---|
□□□□ |④---|
59
□④④□ |①---|
①③③□ |②---|
②□□□ |③---|
□□□□ |④---|
60
□⑤□□ |①-②-|
⑤□□① |--③-|
□□□② |--④-|
③□□④ |--⑤-|
61
□□①□ |--①-|
□□□① |--②-|
□②□□ |----|
□□②□ |----|
62
①②③□ |①-②-|
①□□⑥ |③---|
④⑤□⑥ |④-⑤-|
□□□□ |--⑥-|
63
□□□□ |--①-|
②①□□ |②---|
□□□□ |③-④-|
□④③□ |----|
64
①⑤⑤② |①---|
□□□□ |②---|
②④□① |③-④-|
□□③□ |--⑤-|
65
⑤⑤⑤⑤ |--①-|
□□□□ |②---|
□④①□ |③-④-|
□②③□ |--⑤-|
66
□□④④ |----|
□③□□ |----|
□□②□ |①-②-|
□①□□ |③-④-|
67
②②□□ |--①-|
□□①□ |②---|
□□□□ |----|
□□③③ |③---|
68
⑤④①① |①---|
③□□□ |②-③-|
②□□□ |--④-|
□□□□ |⑤---|
69
□⑤⑤□ |①-②-|
□⑤④⑤ |--③-|
⑤⑤③□ |④---|
⑤⑤①② |⑤---|
70
④□□□ |--①-|
⑤⑥□□ |②-③-|
□⑦③□ |④-⑤-|
□□②① |⑥-⑦-|
71
□②□□ |--①-|
⑤④③□ |--②-|
□□□① |--③-|
□□□□ |④-⑤-|
72
□□□① |--①-|
□□□② |②-③-|
□□④③ |④-⑤-|
⑦⑥⑤□ |⑥-⑦-|
73
④□□⑤ |①---|
②①③□ |②-③-|
①②□□ |--④-|
□□□□ |--⑤-|
74
□□③□ |①-②-|
□②□④ |③-④-|
①⑥⑤□ |⑤-⑥-|
□⑦⑧□ |⑦-⑧-|
75
□⑥⑤□ |①-②-|
⑧④③⑦ |③-④-|
②□□① |⑤-⑥-|
□□□□ |⑦-⑧-|
76
⑤□□④ |--①②|
□⑥⑦□ |③-④-|
□③②① |--⑤-|
□□□□ |⑥-⑦-|
77
□□□□ |①-②-|
③□□① |③-④-|
④⑧⑥② |⑤-⑥-|
□⑦⑤□ |⑦-⑧-|
78
□①①□ |①---|
□□□□ |----|
□□□□ |----|
□□□□ |----|
79
□□①□ |①---|
□□□① |----|
□□□□ |----|
□□□□ |----|
80
□①□□ |①---|
①□□□ |----|
□□□□ |----|
□□□□ |----|
81
□□□□ |①---|
□□□□ |----|
①□□□ |----|
□①□□ |----|
82
□□□□ |①---|
□□□□ |----|
□□□① |----|
□□①□ |----|
83
□□□① |①---|
□□①□ |----|
□□□□ |----|
□□□□ |----|
84
①□□□ |①---|
□①□□ |----|
□□□□ |----|
□□□□ |----|
85
□□□□ |①---|
□□□□ |----|
□①□□ |----|
①□□□ |----|
86
□□□□ |①---|
□□□□ |----|
□□①□ |②---|
□②②① |----|
87
①⑤②① |①---|
②⑤④③ |②---|
①□□① |③-④-|
□□③④ |--⑤-|
88
□□②① |--①-|
□□□□ |②---|
④□③□ |③-④-|
③□④□ |----|
89
□⑤⑥③ |①---|
□②④① |②---|
⑥③□⑤ |③-④-|
□①□② |⑤-⑥-|
90
⑤□□⑤ |①---|
□③④□ |--②-|
⑤④③⑤ |③-④-|
②①①② |--⑤-|
91
□①④□ |----|
②③④① |①---|
□□□□ |②-③-|
③②□□ |--④-|
92
①②□□ |--①-|
④□□③ |②---|
□□□□ |③-④-|
⑤□□⑥ |⑤-⑥-|
93
□④④□ |①---|
□□③□ |②---|
□②②□ |③---|
□①□□ |④---|
94
□□□① |①---|
②□□② |②---|
③□□□ |③---|
④□□④ |④---|
95
①①①① |①---|
④□⑦② |②-③-|
⑤⑥□③ |④-⑤-|
□□□□ |⑥-⑦-|
96
①□□□ |--①-|
⑤②⑦□ |②-③-|
□⑥③□ |④-⑤-|
□□□④ |⑥-⑦-|
97
□□□⑦ |--①-|
⑥□□□ |②-③-|
①□③⑤ |④-⑤-|
④②□□ |⑥-⑦-|
98
□□③□ |--①-|
⑦②□④ |②-③-|
①□□⑤ |④⑤⑥-|
□□⑧⑥ |⑦-⑧-|
99
□④⑤□ |①-②-|
□⑥③⑧ |③-④-|
□②⑦□ |⑤-⑥-|
①□□□ |⑦-⑧-|
100
□□□① |--①-|
□□②□ |②-③-|
⑤③⑦□ |④-⑤-|
④⑥□□ |⑥-⑦-|
101
④⑥□⑦ |①-②-|
②□⑤③ |③-④-|
□□⑦① |⑤-⑥-|
□□□□ |--⑦-|
102
□□⑦□ |--①-|
⑦⑥⑤□ |②-③-|
③④□⑦ |④-⑤-|
①⑦□② |⑥-⑦-|
最終更新:2024年01月23日 17:38