アットウィキロゴ
BPM:256
1
□□□□ |----|
□□□□ |----|
①□①□ |①---|
□□□□ |----|
2
□□□□ |①---|
□①□□ |----|
□②□② |②---|
□①□□ |----|
3
□①③① |①---|
□②□□ |--②-|
□□□□ |③---|
□④□④ |--④-|
4
□□□□ |----|
□□□□ |----|
①□□□ |----|
□□□□ |①---|
5
□④□□ |①---|
⑤⑥③□ |②-③-|
□②⑦① |④-⑤-|
□□□□ |⑥-⑦-|
6
□□□□ |----|
□□□□ |----|
□□□□ |----|
①□□□ |①---|
7
□□③② |①---|
①④⑤⑦ |②-③-|
□□⑥□ |④-⑤-|
□□□□ |⑥-⑦-|
8
□□□□ |--①-|
□□□□ |--②-|
□□□③ |----|
②□③① |③---|
9
□②□□ |①---|
⑤□③□ |----|
①④□□ |②-③-|
□①□□ |④-⑤-|
10
③③①① |--①-|
□□□□ |--②-|
□□□□ |--③-|
□□□② |----|
11
□□□③ |①---|
□□□□ |----|
②□③① |②---|
□①②□ |--③-|
12
①□□□ |----|
□□②□ |----|
□□□□ |--①-|
□□□□ |--②-|
13
□⑤④□ |①---|
⑥□□③ |②-③-|
⑦①□② |④-⑤-|
□□□□ |⑥-⑦-|
14
□□□□ |----|
□□□□ |----|
□□□□ |----|
□□①① |①---|
15
□□□□ |①---|
①①⑥⑤ |--②-|
□③④□ |③-④-|
②□□□ |⑤-⑥-|
16
□□□□ |--①-|
④□□□ |②-③-|
⑤⑥□□ |--④-|
□①②③ |⑤-⑥-|
17
□□⑤□ |①---|
□④□□ |②---|
□□①③ |③---|
②□□□ |④-⑤-|
18
□□□③ |--①-|
□□②□ |②-③-|
□①④□ |--④-|
□⑤□□ |⑤---|
19
①□□□ |①-②-|
②□□□ |③-④-|
③□□⑥ |----|
④□□⑤ |⑤-⑥-|
20
□□②② |①-②-|
□□□① |----|
□□□□ |----|
□□□□ |----|
21
□③⑤⑤ |①---|
①②①□ |②-③-|
⑤□□□ |--④-|
⑤④□□ |--⑤-|
22
□□□□ |--①-|
□□①□ |②-③-|
□③②□ |----|
□□③□ |----|
23
⑤⑤③□ |①---|
□①②① |②-③-|
□□□⑤ |--④-|
□□④⑤ |--⑤-|
24
□□□□ |--①-|
□①□□ |②-③-|
□②③□ |----|
□③□□ |----|
25
□③⑤⑤ |①---|
①②①□ |②-③-|
⑤□□□ |--④-|
⑤④□□ |--⑤-|
26
□□□□ |--①-|
□□①□ |②-③-|
□③②□ |----|
□□③□ |----|
27
⑤⑤③□ |①---|
□①②① |②-③-|
□□□⑤ |--④-|
□□④⑤ |--⑤-|
28
□□□□ |--①-|
□①□□ |②-③-|
□②③□ |----|
□③□□ |----|
29
□③⑤⑤ |①---|
①②①□ |②-③-|
⑤□□□ |--④-|
⑤④□□ |--⑤-|
30
⑤□□□ |--①-|
□□①□ |②-③-|
□③②④ |④---|
□□③□ |⑤---|
31
⑤⑤③□ |①---|
□①②① |②-③-|
□□□⑤ |--④-|
□□④⑤ |--⑤-|
32
□□□⑤ |--①-|
□①□□ |②-③-|
④②③□ |④---|
□③□□ |⑤---|
33
□③⑤⑤ |①---|
①②①□ |②-③-|
⑤□□□ |--④-|
⑤④□□ |--⑤-|
34
⑤□□□ |--①-|
□□①□ |②-③-|
□③②④ |④---|
□□③□ |⑤---|
35
⑤⑤③□ |①---|
□①②① |②-③-|
□□□⑤ |--④-|
□□④⑤ |--⑤-|
36
□□□□ |--①-|
□①□□ |②-③-|
□②③□ |----|
□③□□ |----|
37
□□⑤④ |①---|
□③②□ |②---|
①□□① |③---|
②□□③ |④-⑤-|
38
□□□□ |----|
□②□□ |----|
①□③□ |--①-|
□□□□ |②-③-|
39
②□□□ |①---|
②□□① |②---|
⑤□□③ |③-④-|
⑤□④□ |--⑤-|
40
③□□□ |----|
□②□□ |--①-|
□□①□ |②-③-|
□□□□ |----|
41
④④□□ |----|
①□□② |①---|
□③③□ |②-③-|
②□□① |--④-|
42
□□□□ |----|
□□②□ |----|
□③□① |--①-|
□□□□ |②-③-|
43
⑤⑤□② |①---|
①□□② |②---|
□□④□ |③-④-|
□③□□ |--⑤-|
44
□□②□ |----|
□③□□ |①---|
□□④□ |②-③-|
①⑤□① |④-⑤-|
45
□⑤⑤□ |----|
④□③□ |①-②-|
□②□① |③-④-|
□□□□ |--⑤-|
46
□□□① |----|
③□□□ |----|
②□□① |①---|
□□□□ |②-③-|
47
□②⑤□ |----|
□⑥⑥① |①-②-|
□④③□ |③-④-|
□□□□ |⑤-⑥-|
48
①□□□ |----|
①□□□ |----|
□□□□ |----|
□□□□ |--①-|
49
□□□① |----|
□□□① |①---|
□⑤④□ |②-③-|
□③②□ |④-⑤-|
50
□④⑤□ |----|
□③②□ |--①-|
□□□① |②-③-|
□□□□ |④-⑤-|
51
④□□⑤ |--①-|
①⑥⑥□ |②-③-|
□②□□ |④---|
⑤□③④ |⑤-⑥-|
52
□□□□ |----|
□□□□ |----|
□①①□ |----|
□□□□ |①---|
53
①□□③ |①---|
□⑤④□ |②---|
□□⑥□ |③-④-|
□②②① |⑤-⑥-|
54
□□□□ |--①-|
①□⑤④ |②-③-|
②③□□ |----|
□□□□ |④-⑤-|
55
□□①□ |①---|
□⑤□□ |②-③-|
⑤□④□ |--④-|
②③□④ |--⑤-|
56
②□□① |--①-|
②□□① |②---|
□□□□ |--③-|
□③③□ |----|
57
□⑦②□ |①---|
⑥③□⑤ |②-③-|
□□④□ |④-⑤-|
①□□① |⑥-⑦-|
58
□□□⑦ |--①-|
□□⑥□ |②-③-|
□⑤□① |④-⑤-|
④③②□ |⑥-⑦-|
59
□□①□ |①-②-|
④②□□ |③-④-|
③⑦⑦□ |--⑤-|
⑦⑥⑤⑦ |⑥-⑦-|
60
②①①② |--①-|
□②②□ |--②-|
②□□② |----|
□□□□ |----|
61
②□□□ |①---|
□□□① |----|
□□□□ |②---|
③①①□ |③---|
62
□①①③ |①---|
□□□□ |----|
①□□□ |②---|
□□□② |③---|
63
③□□□ |①---|
□②④① |②---|
□④②□ |③---|
□①①□ |④---|
64
⑤②□⑥ |①---|
①□□□ |②---|
□□□① |③-④-|
③□②④ |⑤-⑥-|
65
□□□□ |--①-|
□③③□ |②-③-|
①□□② |---④|
□④④□ |----|
66
□⑥⑤④ |①-②-|
③□□□ |③---|
□②□□ |④-⑤-|
①□□□ |⑥---|
67
④□□□ |①-②-|
□⑤□① |③---|
⑥□②□ |④-⑤-|
□□□③ |⑥---|
68
□①②① |①---|
□□②② |----|
□□②② |②---|
□□①□ |----|
69
①□□□ |①---|
②□□□ |②---|
③□□□ |③---|
④□□□ |④---|
70
□□□□ |①---|
□□□□ |②---|
□□③④ |③---|
□①②③ |④---|
71
□□④② |①---|
□□③① |②---|
□□□□ |③---|
□□□□ |④---|
72
□①□□ |①---|
□②□□ |②---|
□③③□ |③---|
□□□□ |----|
73
□□□① |①---|
□□□② |②---|
□□□③ |③---|
□□□④ |④---|
74
□□□□ |①---|
□□□□ |②---|
④③□□ |③---|
③②①□ |④---|
75
②③□□ |①---|
①④□□ |②---|
□□□□ |③---|
□□□□ |④---|
76
□□□□ |①---|
□□□□ |----|
□①①① |----|
□□□□ |----|
77
□□③② |①---|
□□④① |②---|
□□□□ |③---|
□□□□ |④---|
78
□□□□ |①---|
□□□□ |----|
①①①□ |----|
□□□□ |----|
79
②□□① |①-②-|
□□□□ |----|
□□□□ |③---|
③③③③ |----|
80
□□□□ |①---|
②②②② |----|
①①①① |②---|
□□□□ |----|
81
①①③③ |①---|
□□□□ |--②-|
□④②② |③---|
①①④④ |--④-|
82
①②□□ |----|
②①□□ |--①-|
□□□③ |--②-|
□□□□ |③---|
83
□□⑤④ |①---|
□⑥□□ |②-③-|
⑦③□□ |④-⑤-|
①□②□ |⑥-⑦-|
84
□□□□ |--①-|
□□②① |--②-|
□□①② |----|
③□□□ |③---|
85
①⑦□□ |①---|
□□⑥□ |②-③-|
□□□⑤ |④-⑤-|
□②③④ |⑥-⑦-|
86
□□□① |--①-|
③□□② |②---|
□①②□ |③---|
③④④□ |④---|
87
⑥□⑥□ |①---|
□②①⑤ |②---|
①③④② |③-④-|
□□□□ |⑤-⑥-|
88
□③□③ |--①-|
□□□□ |--②-|
□□□□ |--③-|
①②①② |----|
89
□④④□ |①---|
②①□② |----|
①②□① |②---|
□③③□ |③-④-|
90
□□□□ |----|
□□②① |----|
□□②① |--①-|
□□□□ |②---|
91
④□⑥□ |①---|
□⑤□⑦ |②-③-|
□②□□ |④-⑤-|
①①③□ |⑥-⑦-|
92
□□□□ |----|
□□□□ |①---|
□③□③ |②---|
②□□① |③---|
93
□④⑤□ |①---|
②③②③ |②---|
①□①□ |③---|
□□□□ |④-⑤-|
94
□□□□ |--①-|
□□□④ |②-③-|
□③②① |----|
□□□④ |④---|
95
⑥□□□ |①---|
②①①□ |②-③-|
□□⑤⑥ |④-⑤-|
②④③□ |--⑥-|
96
□□□③ |--①-|
□④①□ |②-③-|
③②⑤□ |--④-|
□□□□ |⑤---|
97
①⑦□□ |①-②-|
③□□□ |③-④-|
⑤□□④ |⑤---|
□□⑥② |⑥-⑦-|
98
□□□□ |①-②-|
□②③□ |③---|
□③①□ |----|
□□□□ |----|
99
②□□① |①---|
□□□□ |②---|
□□□□ |----|
①③③② |③---|
100
□①□① |--①-|
□①①① |----|
□□①□ |----|
□□□□ |----|
101
⑤□□② |①---|
□□□③ |②-③-|
□①□① |--④-|
④①①① |--⑤-|
102
□□□□ |--①-|
□□□□ |②-③-|
□□②□ |----|
□③□① |----|
103
①①□⑤ |①---|
①③②□ |②-③-|
①①□□ |--④-|
□□□④ |--⑤-|
104
□②□□ |--①-|
①□③□ |②-③-|
□□□□ |----|
□□□□ |----|
105
②□□⑤ |①---|
③□□□ |②-③-|
①□①□ |--④-|
①①①④ |--⑤-|
106
□□□□ |--①-|
□□□□ |②-③-|
□②□□ |----|
①□③□ |----|
107
⑤□①① |①---|
□②③① |②-③-|
□□①① |--④-|
④□□□ |--⑤-|
108
□□②□ |--①-|
□③□① |②-③-|
□□□□ |----|
□□□□ |----|
109
②⑤⑤⑤ |①---|
③⑤□⑤ |②-③-|
①□①□ |--④-|
①①①④ |--⑤-|
110
□□□□ |--①-|
□□□□ |②-③-|
□②□□ |----|
①□③□ |----|
111
⑤⑤①① |①---|
⑤②③① |②-③-|
⑤⑤①① |--④-|
□□④□ |--⑤-|
112
□□②□ |--①-|
□③□① |②-③-|
□□□□ |----|
□□□□ |----|
113
②⑤⑤⑤ |①---|
③⑤□⑤ |②-③-|
①□①□ |--④-|
①①①④ |--⑤-|
114
□□□□ |--①-|
□□□□ |②-③-|
□②□□ |----|
①□③□ |----|
115
⑤⑤①① |①---|
⑤②③① |②-③-|
⑤⑤①① |--④-|
□□④□ |--⑤-|
116
□□②□ |--①-|
□③□① |②-③-|
□□□□ |----|
□□□□ |----|
117
⑤□□① |①-②-|
□⑥②□ |③-④-|
□□□③ |----|
□□④□ |⑤-⑥-|
118
□③□□ |①-②-|
□□④□ |----|
①⑤□□ |③-④-|
□②⑥□ |⑤-⑥-|
119
□□□① |①---|
□①□□ |----|
□□①□ |----|
①□□□ |----|
120
①①□□ |①---|
①□□□ |----|
①①□□ |----|
□□□□ |----|
最終更新:2024年01月23日 17:38